<?xml version="1.0" standalone="no"?>
<!DOCTYPE svg PUBLIC "-//W3C//DTD SVG 1.1//EN" "http://www.w3.org/Graphics/SVG/1.1/DTD/svg11.dtd">
<svg xmlns="http://www.w3.org/2000/svg">
<defs >
<font id="SourceSansPro" horiz-adv-x="465" ><font-face
    font-family="Source Sans Pro Light"
    units-per-em="1000"
    panose-1="2 11 4 3 3 4 3 9 2 4"
    ascent="984"
    descent="-273"
    alphabetic="0" />
<glyph unicode=" " glyph-name="space" horiz-adv-x="200" />
<glyph unicode="!" glyph-name="exclam" horiz-adv-x="253" d="M95 179L187 672H228L214 600L127 179H95ZM76 -12Q60 -12 51 -2T42 23Q42 43 57 59T91 76Q107 76 115 66T123 39Q123 20 110 4T76 -12Z" />
<glyph unicode="&quot;" glyph-name="quotedbl" horiz-adv-x="347" d="M132 464L156 600L169 672H210L196 600L163 464H132ZM266 464L290 600L303 672H344L330 600L297 464H266Z" />
<glyph unicode="#" glyph-name="numbersign" horiz-adv-x="464" d="M41 0L108 214H27L36 250H118L170 420H87L97 456H182L243 650H278L217 456H357L418 650H453L392 456H473L463 420H381L329 250H412L403 214H317L250 0H216L283 214H142L75 0H41ZM153 250H295L347
420H205L153 250Z" />
<glyph unicode="$" glyph-name="dollar" horiz-adv-x="462" d="M146 -110L166 -10Q120 -2 83 24T23 79L51 107Q74 76 111 50T197 24Q260 24 302 63T344 165Q344 206 328 236T287 288T235 331T182 372T141 422T125 488Q125 536 147 573T208 631T294 652L314 750H350L329
649Q365 641 395 619T445 567L415 542Q395 573 365 594T296 616Q241 616 204 583T166 495Q166 461 182 436T223 390T275 349T328 306T369 250T385 173Q385 121 362 80T297 13T201 -12L182 -110H146Z" />
<glyph unicode="%" glyph-name="percent" horiz-adv-x="768" d="M180 258Q122 258 94 301T66 406Q66 449 77 495T110 582T166 647T242 672Q300 672 328 629T356 524Q356 481 345 435T312 348T257 283T180 258ZM182 289Q216 289 241 311T284 368T310 443T319 519Q319
570 301 605T240 641Q206 641 181 619T138 562T112 487T103 411Q103 360 121 325T182 289ZM131 -12L621 672H657L167 -12H131ZM551 -12Q493 -12 465 31T437 136Q437 179 448 225T481 312T537 377T613 402Q671 402 699 359T727 254Q727 211 716 165T683 78T628 13T551
-12ZM553 19Q587 19 612 41T655 98T681 173T690 249Q690 300 672 335T611 371Q577 371 552 349T509 292T483 217T474 141Q474 90 492 55T553 19Z" />
<glyph unicode="&amp;" glyph-name="ampersand" horiz-adv-x="553" d="M211 484Q211 461 214 437T224 387Q266 413 302 440T361 499T384 572Q384 598 371 617T327 637Q277 637 244 594T211 484ZM168 -12Q102 -12 59 28T16 136Q16 190 41 231T105 304T189 365Q172
425 172 480Q172 537 194 580T253 647T330 671Q377 671 399 644T422 578Q422 526 395 487T324 415T234 353Q254 290 288 230T364 123Q409 169 443 224T507 344H547Q515 275 475 212T388 98Q415 72 440 52T491 22L472 -12Q417 10 358 69Q316 32 269 10T168 -12ZM58
143Q58 89 91 56T177 23Q218 23 258 43T334 95Q293 143 258 204T200 330Q162 305 130 277T78 217T58 143Z" />
<glyph unicode="&apos;" glyph-name="quotesingle" horiz-adv-x="213" d="M132 464L156 600L169 672H210L196 600L163 464H132Z" />
<glyph unicode="(" glyph-name="parenleft" horiz-adv-x="268" d="M126 -175Q101 -110 86 -29T70 134Q70 251 98 351T178 545T302 730L328 713Q222 583 165 437T108 127Q108 54 119 -26T155 -165L126 -175Z" />
<glyph unicode=")" glyph-name="parenright" horiz-adv-x="270" d="M-26 -175L-51 -157Q55 -27 111 119T168 429Q168 503 157 582T122 721L150 730Q176 666 191 586T206 422Q206 305 178 204T99 11T-26 -175Z" />
<glyph unicode="*" glyph-name="asterisk" horiz-adv-x="382" d="M177 473L157 491L222 574L139 619L150 644L243 612L265 712L293 710L285 609L381 623L386 596L288 568L326 476L301 461L253 546L177 473Z" />
<glyph unicode="+" glyph-name="plus" horiz-adv-x="462" d="M226 108V314H48V348H227V548H263V348H442V314H263V108H226Z" />
<glyph unicode="," glyph-name="comma" horiz-adv-x="213" d="M-24 -151L-33 -121Q8 -103 35 -73T67 -7Q66 -7 65 -7T62 -7Q46 -7 36 2T26 28Q26 45 38 60T72 76Q91 76 101 63T111 27Q111 -33 73 -81T-24 -151Z" />
<glyph unicode="-" glyph-name="hyphen" horiz-adv-x="287" d="M36 232L43 269H253L245 232H36Z" />
<glyph unicode="." glyph-name="period" horiz-adv-x="213" d="M55 -12Q39 -12 31 -2T22 23Q22 43 37 59T71 76Q87 76 94 66T102 39Q102 20 89 4T55 -12Z" />
<glyph unicode="/" glyph-name="slash" horiz-adv-x="347" d="M-73 -160L397 710H433L-38 -160H-73Z" />
<glyph unicode="0" glyph-name="zero" horiz-adv-x="462" d="M190 -12Q140 -12 108 18T60 96T45 198Q45 262 57 327T92 450T147 553T217 625T299 651Q348 651 380 621T427 542T443 439Q443 375 431 311T396 188T342 85T272 14T190 -12ZM191 24Q227 24 259 49T318
117T363 214T392 325T403 435Q403 483 392 524T358 591T296 616Q260 616 228 591T170 522T124 424T95 313T85 202Q85 155 96 115T130 49T191 24Z" />
<glyph unicode="1" glyph-name="one" horiz-adv-x="462" d="M30 0L38 36H181L289 571H176L182 599Q220 604 253 614T310 639H344L222 36H359L353 0H30Z" />
<glyph unicode="2" glyph-name="two" horiz-adv-x="462" d="M-9 0L-5 27Q101 119 177 185T301 303T372 400T395 495Q395 545 366 580T275 615Q241 615 203 598T129 544L105 573Q148 610 189 630T279 651Q356 651 396 609T436 502Q436 447 414 398T346 297T230
183T64 37H374L368 0H-9Z" />
<glyph unicode="3" glyph-name="three" horiz-adv-x="462" d="M177 -12Q132 -12 97 5T36 46T-5 95L24 118Q40 96 61 74T112 38T181 24Q234 24 274 45T338 102T361 183Q361 239 314 277T159 316L167 351Q254 351 304 375T377 434T399 502Q399 552 372 583T284 615Q251
615 212 600T145 558L121 588Q157 617 201 634T289 651Q365 651 402 613T440 510Q440 449 400 401T285 333V329Q338 313 370 277T402 188Q402 129 374 84T294 13T177 -12Z" />
<glyph unicode="4" glyph-name="four" horiz-adv-x="462" d="M305 0H266L304 189H19L23 215L396 639H433L350 225H440L432 189H343L305 0ZM78 225H310L357 458Q362 483 370 514T386 577H382Q341 524 302 479L78 225Z" />
<glyph unicode="5" glyph-name="five" horiz-adv-x="462" d="M178 -12Q132 -12 98 4T40 44T1 93L31 116Q45 95 63 74T111 38T183 24Q232 24 274 49T342 120T368 225Q368 296 332 331T236 366Q202 366 177 357T121 331L99 348L179 639H454L446 603H208L146 377Q165
387 189 394T243 401Q315 401 362 359T409 233Q409 159 377 104T293 18T178 -12Z" />
<glyph unicode="6" glyph-name="six" horiz-adv-x="462" d="M92 202Q92 124 126 74T219 23Q261 23 296 48T354 115T376 204Q376 268 345 306T255 344Q238 344 211 337T154 310T94 254Q93 241 93 229T92 202ZM216 -12Q165 -12 129 15T72 89T52 198Q52 296 73 378T134
522T225 617T338 651Q386 651 418 630T470 574L438 551Q404 615 335 615Q278 615 229 574T146 462T99 300Q135 341 179 360T261 380Q334 380 375 334T416 214Q416 151 389 100T317 19T216 -12Z" />
<glyph unicode="7" glyph-name="seven" horiz-adv-x="462" d="M132 0Q160 125 197 228T293 423T441 603H112L120 639H499L493 611Q418 539 366 468T278 322T219 169T177 0H132Z" />
<glyph unicode="8" glyph-name="eight" horiz-adv-x="462" d="M215 -12Q169 -12 128 6T60 62T34 154Q34 205 56 243T114 309T190 355V359Q162 386 147 414T132 483Q132 536 156 573T221 631T307 651Q347 651 380 635T435 586T456 505Q456 438 420 395T328 319V315Q345
304 366 284T403 236T419 173Q419 115 391 74T317 11T215 -12ZM299 334Q330 352 357 376T401 431T418 501Q418 557 384 587T304 617Q270 617 240 602T190 557T171 486Q171 428 205 395T299 334ZM216 22Q257 22 294 39T355 88T379 167Q379 211 356 240T294 292T214
338Q153 305 113 264T73 157Q73 113 93 83T146 38T216 22Z" />
<glyph unicode="9" glyph-name="nine" horiz-adv-x="462" d="M113 436Q113 372 143 334T233 295Q251 295 279 303T337 331T395 387Q396 400 396 412T397 438Q397 515 363 565T270 616Q229 616 193 591T135 524T113 436ZM150 -12Q102 -12 71 9T19 65L50 88Q86 24
153 24Q210 24 259 65T342 177T390 339Q354 298 309 279T227 259Q154 259 114 305T73 425Q73 488 99 539T171 621T272 651Q324 651 360 624T417 550T437 441Q437 344 416 261T355 117T264 22T150 -12Z" />
<glyph unicode=":" glyph-name="colon" horiz-adv-x="213" d="M123 378Q107 378 99 388T90 413Q90 433 105 449T139 466Q155 466 162 456T170 429Q170 410 157 394T123 378ZM55 -12Q39 -12 31 -2T22 23Q22 43 37 59T71 76Q87 76 94 66T102 39Q102 20 89 4T55 -12Z" />
<glyph unicode=";" glyph-name="semicolon" horiz-adv-x="213" d="M123 378Q107 378 99 388T90 413Q90 433 105 449T139 466Q155 466 162 456T170 429Q170 410 157 394T123 378ZM-24 -151L-33 -121Q8 -103 35 -73T67 -7Q66 -7 65 -7T62 -7Q46 -7 36 2T26 28Q26
45 38 60T72 76Q91 76 101 63T111 27Q111 -33 73 -81T-24 -151Z" />
<glyph unicode="&lt;" glyph-name="less" horiz-adv-x="462" d="M442 150L46 312V348L442 510V472L219 382L96 332V328L219 279L442 189V150Z" />
<glyph unicode="=" glyph-name="equal" horiz-adv-x="462" d="M48 414V448H442V414H48ZM48 468V502H442V468H48Z" />
<glyph unicode="&gt;" glyph-name="greater" horiz-adv-x="462" d="M48 150V189L271 279L394 328V332L271 382L48 472V510L444 348V312L48 150Z" />
<glyph unicode="?" glyph-name="question" horiz-adv-x="388" d="M144 183Q146 235 168 274T221 345T282 406T333 468T354 543Q354 592 328 619T256 646Q222 646 190 630T135 587L110 614Q136 642 175 662T260 682Q323 682 359 648T395 551Q395 501 375 464T323
396T261 333T207 265T181 180L144 183ZM130 -12Q114 -12 106 -2T97 23Q97 43 111 59T146 76Q162 76 169 66T177 39Q177 20 164 4T130 -12Z" />
<glyph unicode="@" glyph-name="at" horiz-adv-x="783" d="M336 -145Q252 -145 187 -108T84 -1T46 164Q46 265 81 350T176 498T311 596T467 631Q556 631 618 594T713 492T746 342Q746 249 718 185T646 86T553 52Q517 52 496 73T467 128H465Q440 100 412 80T350
60Q308 60 274 93T240 190Q240 233 255 274T296 348T356 402T431 422Q455 422 474 409T506 371H508L521 414H552L504 201Q492 152 504 119T560 85Q596 85 630 114T687 200T710 335Q710 413 683 472T601 564T464 598Q392 598 324 566T202 475T115 340T82 171Q82
82 115 19T206 -78T339 -112Q420 -112 484 -75L499 -103Q459 -125 418 -135T336 -145ZM355 94Q381 94 407 111T459 163L498 336Q482 367 465 378T430 389Q396 389 368 372T320 325T288 263T277 197Q277 144 300 119T355 94Z" />
<glyph unicode="A" glyph-name="A" horiz-adv-x="488" d="M210 391L142 264H370L355 391Q350 446 344 502T332 616H328Q299 556 270 502T210 391ZM-48 0L315 659H362L443 0H400L374 229H123L0 0H-48Z" />
<glyph unicode="B" glyph-name="B" horiz-adv-x="571" d="M39 0L170 659H332Q424 659 474 622T525 516Q525 468 502 433T444 378T376 351V347Q409 340 437 323T482 277T500 207Q500 136 467 90T373 22T234 0H39ZM154 367H266Q374 367 428 407T482 512Q482 565
442 594T315 623H206L154 367ZM88 36H219Q291 36 344 52T428 106T458 204Q458 260 412 296T282 332H148L88 36Z" />
<glyph unicode="C" glyph-name="C" horiz-adv-x="540" d="M281 -12Q207 -12 158 22T83 115T58 248Q58 322 80 396T146 533T252 633T392 671Q448 671 485 644T546 578L514 555Q495 589 464 611T389 634Q321 634 268 599T177 507T121 384T101 254Q101 189 120 137T181
55T286 25Q332 25 369 42T442 89L465 61Q425 27 381 8T281 -12Z" />
<glyph unicode="D" glyph-name="D" horiz-adv-x="577" d="M39 0L170 659H279Q416 659 483 589T551 403Q551 289 511 198T392 53T199 0H39ZM88 36H200Q274 36 331 64T427 143T487 259T508 400Q508 500 451 561T277 623H205L88 36Z" />
<glyph unicode="E" glyph-name="E" horiz-adv-x="489" d="M39 0L170 659H518L510 622H205L154 368H412L404 331H148L88 37H402L394 0H39Z" />
<glyph unicode="F" glyph-name="F" horiz-adv-x="455" d="M39 0L170 659H518L510 622H205L152 355H410L402 318H146L82 0H39Z" />
<glyph unicode="G" glyph-name="G" horiz-adv-x="575" d="M291 -12Q213 -12 162 21T84 113T58 248Q58 322 80 397T147 534T256 633T402 671Q458 671 496 644T557 578L525 555Q506 589 475 611T399 634Q328 634 273 599T179 507T121 384T101 254Q101 191 120 139T183
56T296 25Q340 25 374 39T431 75L473 286H321L329 322H522L467 54Q433 24 389 6T291 -12Z" />
<glyph unicode="H" glyph-name="H" horiz-adv-x="605" d="M39 0L170 659H213L154 368H494L553 659H596L464 0H421L488 331H148L82 0H39Z" />
<glyph unicode="I" glyph-name="I" horiz-adv-x="227" d="M39 0L170 659H213L82 0H39Z" />
<glyph unicode="J" glyph-name="J" horiz-adv-x="436" d="M150 -12Q90 -12 54 17T1 90L34 110Q61 25 151 25Q207 25 243 67T292 177L388 659H431L334 172Q319 89 272 39T150 -12Z" />
<glyph unicode="K" glyph-name="K" horiz-adv-x="532" d="M39 0L170 659H213L142 301H144L522 659H573L323 416L474 0H429L290 388L130 238L82 0H39Z" />
<glyph unicode="L" glyph-name="L" horiz-adv-x="440" d="M39 0L170 659H213L90 37H383L375 0H39Z" />
<glyph unicode="M" glyph-name="M" horiz-adv-x="684" d="M39 0L170 659H232L296 273L320 127H324L400 273L614 659H675L543 0H501L589 436Q598 477 608 525T629 613H626L547 470L330 74H293L224 470L201 613H197Q190 572 183 525T167 436L80 0H39Z" />
<glyph unicode="N" glyph-name="N" horiz-adv-x="605" d="M39 0L170 659H216L391 191L437 57H441Q449 104 456 154T473 251L554 659H597L465 0H421L248 466L200 605H196Q189 556 181 508T162 413L81 0H39Z" />
<glyph unicode="O" glyph-name="O" horiz-adv-x="618" d="M277 -12Q205 -12 157 23T85 120T61 262Q61 317 75 374T115 485T179 580T267 646T374 671Q447 671 494 636T566 540T590 397Q590 328 569 257T507 124T409 26T277 -12ZM280 25Q343 25 393 60T477 150T529
270T547 392Q547 464 529 518T472 603T371 634Q308 634 259 599T175 509T123 389T105 267Q105 196 123 141T180 56T280 25Z" />
<glyph unicode="P" glyph-name="P" horiz-adv-x="531" d="M39 0L170 659H343Q434 659 486 623T539 506Q539 395 463 341T260 286H138L82 0H39ZM146 322H256Q496 322 496 502Q496 567 453 595T325 623H205L146 322Z" />
<glyph unicode="Q" glyph-name="Q" horiz-adv-x="618" d="M280 25Q343 25 393 59T477 150T529 270T547 392Q547 464 529 518T472 603T371 634Q308 634 259 599T175 509T123 389T105 267Q105 195 123 141T180 56T280 25ZM445 -153Q372 -153 316 -119T241 -9Q151
4 106 78T61 262Q61 317 75 374T115 485T179 580T267 646T374 671Q447 671 494 636T566 540T590 397Q590 329 570 258T509 127T413 28T284 -12Q299 -64 343 -89T448 -115Q472 -115 496 -109L501 -146Q474 -153 445 -153Z" />
<glyph unicode="R" glyph-name="R" horiz-adv-x="531" d="M39 0L170 659H336Q425 659 477 625T530 514Q530 455 503 410T429 338T320 304L445 0H397L275 301H142L82 0H39ZM150 337H265Q372 337 429 383T487 510Q487 572 445 597T317 623H205L150 337Z" />
<glyph unicode="S" glyph-name="S" horiz-adv-x="493" d="M227 -12Q88 -12 16 100L49 123Q81 77 126 51T232 25Q280 25 318 44T378 97T400 176Q400 219 377 248T315 300L230 351Q190 375 159 411T127 501Q127 547 151 585T218 647T317 671Q376 671 422 645T495
582L466 556Q441 588 402 611T311 634Q268 634 237 615T188 567T171 506Q171 461 197 433T258 385L341 336Q388 309 416 273T444 182Q444 124 416 81T338 13T227 -12Z" />
<glyph unicode="T" glyph-name="T" horiz-adv-x="497" d="M176 0L300 620H98L106 659H553L545 620H343L219 0H176Z" />
<glyph unicode="U" glyph-name="U" horiz-adv-x="600" d="M273 -12Q182 -12 132 39T81 184Q81 204 83 224T90 269L168 659H211L134 273Q128 250 126 230T124 192Q124 113 162 69T277 25Q319 25 356 46T423 116T468 242L551 659H594L509 236Q491 145 455 91T373
12T273 -12Z" />
<glyph unicode="V" glyph-name="V" horiz-adv-x="463" d="M145 0L83 659H125L159 269Q164 215 169 160T179 48H183Q209 102 237 159T294 269L497 659H541L195 0H145Z" />
<glyph unicode="W" glyph-name="W" horiz-adv-x="734" d="M106 0L107 659H150L148 270Q146 216 146 162T144 54H148Q173 108 197 162T246 270L427 659H471L484 270Q489 162 490 54H494Q538 162 584 270L745 659H789L508 0H454L440 453Q440 492 440 530T440 608H436Q421
568 404 531T369 453L160 0H106Z" />
<glyph unicode="X" glyph-name="X" horiz-adv-x="459" d="M-36 0L222 343L109 659H154L223 459Q231 437 237 417T252 372H255Q290 418 324 464L467 659H513L270 337L393 0H348L275 209Q266 233 258 258T240 309H238Q217 284 197 256T160 203L10 0H-36Z" />
<glyph unicode="Y" glyph-name="Y" horiz-adv-x="433" d="M140 0L194 268L85 659H129L184 451Q194 415 202 380T221 308H224Q248 344 272 380T320 451L464 659H510L237 268L183 0H140Z" />
<glyph unicode="Z" glyph-name="Z" horiz-adv-x="505" d="M1 0L7 26L472 622H147L155 659H531L526 633L63 37H422L414 0H1Z" />
<glyph unicode="[" glyph-name="bracketleft" horiz-adv-x="270" d="M15 -152L187 708H338L335 680H214L54 -124H173L166 -152H15Z" />
<glyph unicode="\" glyph-name="backslash" horiz-adv-x="347" d="M229 -160L89 710H121L261 -160H229Z" />
<glyph unicode="]" glyph-name="bracketright" horiz-adv-x="270" d="M-60 -152L-54 -124H65L228 680H107L112 708H265L93 -152H-60Z" />
<glyph unicode="^" glyph-name="asciicircum" horiz-adv-x="464" d="M90 288L234 670H268L413 288H377L301 491L253 623H251L204 491L128 288H90Z" />
<glyph unicode="_" glyph-name="underscore" horiz-adv-x="484" d="M-29 -115L-21 -81H436L429 -115H-29Z" />
<glyph unicode="`" glyph-name="grave" horiz-adv-x="508" d="M365 570L246 731L283 758L392 590L365 570Z" />
<glyph unicode="a" glyph-name="a" horiz-adv-x="527" d="M184 -12Q121 -12 83 32T44 161Q44 230 66 290T125 396T208 466T305 492Q347 492 378 471T429 414H432L451 480H485L389 0H354L365 76H361Q324 38 279 13T184 -12ZM193 24Q240 24 285 51T373 128L423 369Q397
416 368 436T304 456Q261 456 222 432T153 367T104 274T86 169Q86 96 115 60T193 24Z" />
<glyph unicode="b" glyph-name="b" horiz-adv-x="526" d="M221 -12Q178 -12 148 9T97 66H94L75 0H40L184 719H225L183 510L162 413H164Q202 444 247 468T341 492Q405 492 443 448T481 319Q481 250 460 190T401 84T317 14T221 -12ZM221 24Q264 24 303 48T373 113T422
206T440 312Q440 384 411 420T332 456Q292 456 244 431T155 367L103 111Q129 65 158 45T221 24Z" />
<glyph unicode="c" glyph-name="c" horiz-adv-x="430" d="M212 -12Q135 -12 89 37T42 178Q42 248 64 305T123 405T206 469T301 492Q342 492 370 476T422 434L396 406Q374 432 353 444T298 456Q258 456 220 435T151 375T102 288T84 184Q84 106 117 65T217 24Q253
24 284 39T341 74L362 44Q336 25 299 7T212 -12Z" />
<glyph unicode="d" glyph-name="d" horiz-adv-x="528" d="M184 -12Q121 -12 83 32T44 161Q44 230 66 290T125 396T208 466T305 492Q347 492 378 471T428 415H432L451 510L493 719H534L389 0H354L365 76H361Q324 38 279 13T184 -12ZM193 24Q240 24 285 51T373 128L423
369Q397 416 368 436T304 456Q261 456 222 432T153 367T104 274T86 169Q86 96 115 60T193 24Z" />
<glyph unicode="e" glyph-name="e" horiz-adv-x="471" d="M225 -12Q142 -12 92 38T42 186Q42 254 63 310T121 407T201 470T292 492Q370 492 403 444T436 322Q436 297 432 275T423 238H88Q75 163 92 116T146 46T231 23Q263 23 294 37T351 70L370 40Q341 19 304
4T225 -12ZM94 271H392Q398 300 398 328Q398 361 388 390T353 438T288 457Q246 457 206 433T137 368T94 271Z" />
<glyph unicode="f" glyph-name="f" horiz-adv-x="256" d="M47 0L135 444H73L79 476L143 480L165 590Q180 661 215 696T297 731Q322 731 339 725T372 709L354 678Q343 685 330 690T297 695Q261 695 238 665T206 590L184 480H290L282 444H176L88 0H47Z" />
<glyph unicode="g" glyph-name="g" horiz-adv-x="521" d="M167 -230Q116 -230 77 -210T5 -164L28 -133Q55 -158 90 -176T170 -194Q240 -194 280 -148T337 -26L361 86Q321 46 277 22T183 -2Q122 -2 83 42T44 169Q44 236 65 294T123 397T205 467T299 492Q340 492
371 471T422 414H426L445 480H479L374 -41Q356 -129 304 -179T167 -230ZM191 35Q231 35 279 61T367 132L417 369Q389 416 361 436T298 456Q258 456 220 432T152 368T104 278T86 176Q86 106 114 71T191 35Z" />
<glyph unicode="h" glyph-name="h" horiz-adv-x="509" d="M40 0L184 719H225L171 453L158 403H162Q209 442 251 467T336 492Q398 492 424 460T450 375Q450 357 449 344T442 310L380 0H339L401 304Q405 326 407 339T409 366Q409 410 389 432T323 455Q292 455 250
431T153 354L82 0H40Z" />
<glyph unicode="i" glyph-name="i" horiz-adv-x="220" d="M40 0L137 480H178L82 0H40ZM185 596Q171 596 161 605T151 629Q151 649 164 661T193 674Q207 674 217 665T227 640Q227 621 215 609T185 596Z" />
<glyph unicode="j" glyph-name="j" horiz-adv-x="220" d="M-57 -229Q-79 -229 -93 -225T-120 -213L-104 -180Q-95 -186 -85 -189T-57 -193Q-27 -193 -8 -166T21 -93L137 480H178L64 -88Q50 -154 22 -191T-57 -229ZM179 596Q165 596 155 605T145 629Q145 649 158
661T187 674Q201 674 211 665T221 640Q221 621 209 609T179 596Z" />
<glyph unicode="k" glyph-name="k" horiz-adv-x="447" d="M40 0L184 719H225L120 190H123L407 480H457L269 285L385 0H342L238 258L107 125L82 0H40Z" />
<glyph unicode="l" glyph-name="l" horiz-adv-x="232" d="M92 -12Q73 -12 61 -1T48 31Q48 42 53 62L184 719H225L94 59Q93 52 93 47T92 39Q92 24 106 24Q110 24 113 24T123 28L126 -5Q118 -9 111 -10T92 -12Z" />
<glyph unicode="m" glyph-name="m" horiz-adv-x="782" d="M40 0L137 480H171L161 404H165Q205 442 247 467T324 492Q384 492 408 463T435 392Q485 440 530 466T610 492Q670 492 696 460T723 375Q723 357 721 344T715 310L653 0H611L673 304Q678 326 679 339T681
366Q681 410 662 432T598 455Q575 455 532 431T438 354L367 0H326L387 304Q392 326 393 339T395 366Q395 410 376 432T312 455Q289 455 246 431T153 354L82 0H40Z" />
<glyph unicode="n" glyph-name="n" horiz-adv-x="510" d="M40 0L137 480H171L161 404H165Q209 442 250 467T336 492Q398 492 424 460T450 375Q450 357 449 344T442 310L380 0H339L401 304Q405 326 407 339T409 366Q409 410 389 432T323 455Q292 455 250 431T153
354L82 0H40Z" />
<glyph unicode="o" glyph-name="o" horiz-adv-x="504" d="M206 -12Q133 -12 89 38T44 178Q44 246 65 303T122 402T203 468T297 492Q371 492 415 443T460 302Q460 235 439 178T382 78T301 12T206 -12ZM210 24Q249 24 286 45T353 105T400 192T418 297Q418 375 386
415T294 456Q255 456 218 435T151 375T103 288T85 184Q85 106 117 65T210 24Z" />
<glyph unicode="p" glyph-name="p" horiz-adv-x="524" d="M-3 -217L137 480H171L161 412H165Q203 444 247 468T341 492Q405 492 443 448T481 319Q481 250 460 190T401 84T317 14T221 -12Q179 -12 147 10T94 65H92L71 -43L38 -217H-3ZM221 24Q264 24 303 48T373
113T422 206T440 312Q440 384 411 420T332 456Q292 456 244 431T155 366L103 107Q129 62 158 43T221 24Z" />
<glyph unicode="q" glyph-name="q" horiz-adv-x="527" d="M304 -217L339 -43L365 78H363Q325 38 280 13T184 -12Q121 -12 83 32T44 161Q44 230 66 290T125 396T208 466T305 492Q347 492 378 471T429 414H432L451 480H485L346 -217H304ZM193 24Q240 24 285 51T373
128L423 369Q397 416 368 436T304 456Q261 456 222 432T153 367T104 274T86 169Q86 96 115 60T193 24Z" />
<glyph unicode="r" glyph-name="r" horiz-adv-x="317" d="M40 0L137 480H171L157 389H161Q190 432 227 462T311 492Q321 492 331 491T354 484L338 445Q331 448 323 450T300 453Q262 453 220 418T145 318L82 0H40Z" />
<glyph unicode="s" glyph-name="s" horiz-adv-x="389" d="M159 -12Q108 -12 64 14T-1 77L28 99Q48 68 83 46T164 23Q197 23 225 36T270 72T287 124Q287 143 279 158T249 191T185 233Q135 261 107 290T78 357Q78 398 98 428T150 475T222 492Q306 492 360 432L331
409Q312 430 285 443T220 457Q176 457 147 429T118 363Q118 330 145 309T207 267Q256 240 281 219T317 178T327 131Q327 87 305 55T244 6T159 -12Z" />
<glyph unicode="t" glyph-name="t" horiz-adv-x="299" d="M174 -12Q118 -12 96 16T73 83Q73 97 74 107T77 131L142 444H67L73 476L151 480L184 617H219L191 480H321L313 444H183L118 129Q117 120 116 111T114 91Q114 58 128 41T182 24Q199 24 213 29T240 41L251
10Q237 3 217 -4T174 -12Z" />
<glyph unicode="u" glyph-name="u" horiz-adv-x="518" d="M181 -12Q120 -12 93 20T66 105Q66 123 68 136T74 170L136 480H177L116 176Q112 154 110 141T108 114Q108 70 128 48T193 25Q225 25 267 49T363 126L434 480H475L379 0H345L355 78H351Q308 41 267 15T181 -12Z" />
<glyph unicode="v" glyph-name="v" horiz-adv-x="419" d="M134 0L58 480H99L145 177Q151 142 155 106T165 35H169Q187 70 206 106T244 177L407 480H450L187 0H134Z" />
<glyph unicode="w" glyph-name="w" horiz-adv-x="683" d="M110 0L68 480H110L134 166Q137 133 139 101T144 36H148Q163 68 177 100T206 166L350 480H400L422 166Q424 133 426 101T429 36H433Q447 68 461 100T492 166L638 480H678L452 0H396L376 299Q374 334 373
371T369 442H365Q350 408 335 371T303 299L166 0H110Z" />
<glyph unicode="x" glyph-name="x" horiz-adv-x="393" d="M-47 0L177 254L82 480H125L175 359Q183 337 190 319T206 279H210Q227 299 244 318T279 359L384 480H430L227 245L329 0H286L235 130Q226 153 217 176T196 221H192Q175 199 156 178T115 132L1 0H-47Z" />
<glyph unicode="y" glyph-name="y" horiz-adv-x="419" d="M-31 -219Q-39 -219 -51 -217T-78 -207L-62 -174Q-45 -183 -28 -183Q15 -183 52 -147T119 -49L140 -8L59 480H100L147 179Q152 145 157 107T167 36H171Q189 71 208 107T246 179L408 480H450L154 -59Q133
-99 107 -135T47 -195T-31 -219Z" />
<glyph unicode="z" glyph-name="z" horiz-adv-x="391" d="M-10 0L-6 25L352 444H107L115 480H413L409 455L50 36H332L324 0H-10Z" />
<glyph unicode="{" glyph-name="braceleft" horiz-adv-x="268" d="M131 -152Q88 -152 68 -135T48 -76Q48 -49 56 -11T76 68T96 147T105 208Q105 228 92 245T35 263L42 293Q77 294 97 306T126 336T140 375Q149 423 157 475T175 578Q190 654 218 681T302 708H337L332
680H302Q257 680 238 654T207 574Q199 530 192 481T176 384Q166 340 150 314T101 278L100 274Q123 265 130 250T137 218Q137 191 129 153T110 73T91 -6T82 -68Q82 -96 95 -110T144 -124H172L165 -152H131Z" />
<glyph unicode="|" glyph-name="bar" horiz-adv-x="217" d="M99 -250V750H132V-250H99Z" />
<glyph unicode="}" glyph-name="braceright" horiz-adv-x="270" d="M-61 -152L-55 -124H-25Q19 -124 39 -98T69 -20Q78 24 85 73T101 170Q110 216 127 242T176 278V282Q153 291 146 306T139 338Q139 364 147 402T166 481T185 560T194 622Q194 651 182 665T133
680H104L111 708H145Q189 708 209 690T229 632Q229 605 221 567T201 487T181 408T172 346Q172 328 184 311T242 293L234 263Q182 262 162 237T136 181Q127 133 120 80T102 -24Q87 -100 58 -126T-25 -152H-61Z" />
<glyph unicode="~" glyph-name="asciitilde" horiz-adv-x="462" d="M326 269Q299 269 276 282T233 314T193 345T153 359Q131 359 113 345T76 296L49 312Q70 353 98 373T154 393Q181 393 204 380T247 348T287 317T327 303Q349 303 367 317T404 366L431 350Q410
309 383 289T326 269Z" />
<glyph unicode="&#xa0;" glyph-name="space" horiz-adv-x="200" />
<glyph unicode="&#xa1;" glyph-name="exclamdown" horiz-adv-x="253" d="M23 -192L37 -120L125 302H157L64 -192H23ZM160 404Q144 404 137 414T129 441Q129 461 142 476T176 492Q192 492 200 482T209 457Q209 438 195 421T160 404Z" />
<glyph unicode="&#xa2;" glyph-name="cent" horiz-adv-x="462" d="M198 -11L220 101Q156 109 119 157T81 288Q81 350 101 399T154 483T229 538T311 561L332 667H366L345 560Q383 556 409 538T455 496L427 469Q408 493 388 507T338 524L261 135Q299 137 330 151T387
185L404 153Q375 135 340 118T254 99L232 -11H198ZM123 296Q123 229 149 187T227 137L304 524Q261 520 220 490T151 411T123 296Z" />
<glyph unicode="&#xa3;" glyph-name="sterling" horiz-adv-x="462" d="M7 0L12 24Q87 63 123 128T159 269Q159 275 159 281T158 293H63L71 323L156 327Q154 356 152 385T149 439Q149 539 201 595T336 651Q384 651 416 626T465 569L434 546Q418 575 392 595T333
615Q270 615 230 567T189 442Q189 417 192 387T197 327H358L351 293H199Q199 289 199 285T199 276Q199 200 174 143T96 41V37H369L363 0H7Z" />
<glyph unicode="&#xa4;" glyph-name="currency" horiz-adv-x="462" d="M34 127L13 153L87 218Q81 234 78 253T74 294Q74 340 90 380T135 452L87 516L114 538L161 475Q187 495 217 507T279 519Q341 519 379 475L453 540L474 514L398 447Q413 416 413 369Q413 326
398 287T357 218L412 145L386 124L332 194Q306 171 274 158T208 144Q141 144 106 190L34 127ZM211 179Q251 179 288 203T349 269T373 363Q373 422 348 453T275 485Q236 485 199 461T137 395T113 301Q113 242 138 211T211 179Z" />
<glyph unicode="&#xa5;" glyph-name="yen" horiz-adv-x="462" d="M161 0L194 168H34L41 196H201L215 272H54L61 301H207L111 640H153L205 443Q213 410 222 376T239 304H243Q268 342 290 376T335 443L460 640H503L277 301H423L416 272H256L242 196H402L395 168H235L202
0H161Z" />
<glyph unicode="&#xa6;" glyph-name="brokenbar" horiz-adv-x="217" d="M99 278V750H132V278H99ZM99 -250V218H132V-250H99Z" />
<glyph unicode="&#xa7;" glyph-name="section" horiz-adv-x="460" d="M176 -48Q133 -48 94 -30T23 22L49 51Q75 22 109 5T179 -13Q222 -13 253 14T284 84Q284 115 268 136T227 173T172 204T118 238T76 281T60 343Q60 398 91 435T172 492Q165 504 160 518T155 549Q155
611 194 646T291 681Q334 681 369 661T431 612L403 585Q381 611 352 628T289 646Q254 646 225 622T195 556Q195 528 211 508T252 471T305 438T359 402T400 356T416 292Q416 233 388 202T308 149Q324 123 324 91Q324 52 305 21T252 -29T176 -48ZM99 350Q99 314 119
291T169 250T232 215T288 174Q331 191 354 215T377 285Q377 321 358 346T309 389T249 426T194 467Q151 451 125 423T99 350Z" />
<glyph unicode="&#xa8;" glyph-name="dieresis" horiz-adv-x="508" d="M252 598Q222 598 222 628Q222 646 233 658T259 671Q289 671 289 639Q289 622 278 610T252 598ZM423 598Q410 598 402 606T393 628Q393 646 404 658T430 671Q460 671 460 639Q460 622 449
610T423 598Z" />
<glyph unicode="&#xa9;" glyph-name="copyright" horiz-adv-x="661" d="M298 -12Q221 -12 163 23T72 120T39 265Q39 336 64 404T136 529T248 618T395 652Q472 652 530 617T621 520T654 376Q654 305 629 236T557 111T445 22T298 -12ZM300 17Q373 17 432 48T535
132T601 246T624 372Q624 448 596 504T516 592T393 624Q320 624 261 593T158 509T92 395T69 269Q69 193 97 137T178 49T300 17ZM323 124Q262 124 223 161T183 273Q183 329 201 373T249 447T314 494T384 511Q419 511 441 497T479 460L454 438Q439 457 423 467T380
478Q344 478 307 453T244 383T219 280Q219 219 248 188T327 157Q360 157 387 171T440 203L457 176Q427 154 397 139T323 124Z" />
<glyph unicode="&#xaa;" glyph-name="ordfeminine" horiz-adv-x="348" d="M184 398Q142 398 116 427T90 514Q90 575 115 624T181 702T266 731Q290 731 311 720T345 682H349L361 723H388L326 406H297L306 457H302Q277 430 248 414T184 398ZM191 428Q220 428 251
448T310 499L339 646Q323 677 304 689T265 701Q230 701 198 675T146 607T125 519Q125 473 144 451T191 428Z" />
<glyph unicode="&#xab;" glyph-name="guillemotleft" horiz-adv-x="383" d="M142 72L40 236L47 276L205 430L224 410L78 251L166 87L142 72ZM284 72L182 236L189 276L347 430L366 410L220 251L308 87L284 72Z" />
<glyph unicode="&#xac;" glyph-name="logicalnot" horiz-adv-x="462" d="M405 108V314H48V348H442V108H405Z" />
<glyph unicode="&#xad;" glyph-name="hyphen" horiz-adv-x="287" d="M36 232L43 269H253L245 232H36Z" />
<glyph unicode="&#xae;" glyph-name="registered" horiz-adv-x="384" d="M224 330Q182 330 147 350T90 407T68 493Q68 548 93 597T163 676T262 707Q305 707 340 686T396 629T418 543Q418 488 392 439T322 360T224 330ZM226 356Q271 356 308 381T367 448T389 539Q389
600 354 640T260 680Q215 680 178 655T119 588T97 497Q97 436 131 396T226 356ZM164 418L206 623H263Q292 623 308 608T324 565Q324 541 310 524T274 499L303 418H272L247 492H209L193 418H164ZM215 518H240Q265 518 279 529T294 562Q294 578 285 587T257 597H229L215
518Z" />
<glyph unicode="&#xaf;" glyph-name="overscore" horiz-adv-x="508" d="M215 606L221 640H459L454 606H215Z" />
<glyph unicode="&#xb0;" glyph-name="degree" horiz-adv-x="292" d="M201 450Q160 450 133 478T105 551Q105 587 121 617T163 666T223 684Q264 684 291 656T319 583Q319 547 304 517T261 469T201 450ZM203 479Q229 479 247 494T276 532T287 579Q287 611 270 633T221
655Q196 655 177 640T147 603T136 555Q136 523 154 501T203 479Z" />
<glyph unicode="&#xb1;" glyph-name="plusminus" horiz-adv-x="462" d="M226 115V317H48V352H227V548H263V352H442V317H263V115H226ZM48 0V35H442V0H48Z" />
<glyph unicode="&#xb2;" glyph-name="two.sups" horiz-adv-x="346" d="M87 406L91 434Q180 499 234 544T312 626T336 704Q336 776 262 776Q238 776 214 761T170 723L148 746Q171 771 201 789T266 808Q316 808 344 781T373 708Q373 664 349 624T275 539T148 437H338L333
406H87Z" />
<glyph unicode="&#xb3;" glyph-name="three.sups" horiz-adv-x="346" d="M210 394Q164 394 132 418T83 474L111 492Q125 464 149 445T211 425Q250 425 279 447T308 510Q308 543 279 568T189 593L196 622Q245 622 275 635T318 670T332 712Q332 741 313 759T260
777Q213 777 167 740L150 767Q201 808 264 808Q310 808 339 783T368 714Q368 677 342 647T271 604Q309 593 327 567T345 515Q345 477 327 450T277 408T210 394Z" />
<glyph unicode="&#xb4;" glyph-name="acute" horiz-adv-x="508" d="M300 580L279 605L437 750L464 716L300 580Z" />
<glyph unicode="&#xb5;" glyph-name="mu" horiz-adv-x="514" d="M-3 -198L133 480H174L113 176Q109 154 107 141T105 114Q105 70 125 48T190 25Q222 25 264 49T360 126L431 480H472L376 0H341L352 78H348Q306 41 266 15T184 -11Q150 -11 123 3T85 54L68 -42L38 -198H-3Z" />
<glyph unicode="&#xb6;" glyph-name="paragraph" horiz-adv-x="492" d="M291 -80L439 659H480L332 -80H291ZM298 242Q238 242 187 261T106 319T75 414Q75 475 97 521T156 597T241 643T337 659H388L304 242H298Z" />
<glyph unicode="&#xb7;" glyph-name="middot" horiz-adv-x="213" d="M114 286Q98 286 90 296T81 321Q81 341 96 357T130 374Q146 374 153 364T161 337Q161 318 148 302T114 286Z" />
<glyph unicode="&#xb8;" glyph-name="cedilla" horiz-adv-x="508" d="M90 -219L88 -191Q150 -189 180 -173T211 -132Q211 -93 143 -87L200 2H235L193 -67Q228 -76 239 -89T250 -125Q249 -169 205 -193T90 -219Z" />
<glyph unicode="&#xb9;" glyph-name="one.sups" horiz-adv-x="344" d="M203 406L268 734H177L182 759Q220 765 243 773T288 796H316L239 406H203Z" />
<glyph unicode="&#xba;" glyph-name="ordmasculine" horiz-adv-x="342" d="M201 398Q149 398 120 431T90 523Q90 586 116 633T182 705T264 731Q316 731 345 698T375 606Q375 543 349 496T284 424T201 398ZM204 428Q240 428 271 452T321 516T340 602Q340 649 320
675T261 701Q226 701 195 677T145 614T125 527Q125 480 145 454T204 428Z" />
<glyph unicode="&#xbb;" glyph-name="guillemotright" horiz-adv-x="383" d="M40 72L21 92L167 251L78 415L103 430L205 266L197 226L40 72ZM182 72L163 92L309 251L220 415L245 430L347 266L339 226L182 72Z" />
<glyph unicode="&#xbc;" glyph-name="onequarter" horiz-adv-x="730" d="M153 270L218 598H127L132 623Q170 629 193 637T238 660H266L189 270H153ZM120 -12L610 672H646L156 -12H120ZM446 145H576L594 237L619 338H615L544 256L446 145ZM547 0L570 116H399L403
138L627 390H658L609 145H667L660 116H603L580 0H547Z" />
<glyph unicode="&#xbd;" glyph-name="onehalf" horiz-adv-x="749" d="M149 270L214 598H123L128 623Q166 629 189 637T234 660H262L185 270H149ZM92 -12L582 672H618L128 -12H92ZM407 0L411 28Q500 93 554 138T632 220T656 298Q656 370 582 370Q558 370 534 355T490
317L468 340Q491 365 521 383T586 402Q636 402 664 375T693 302Q693 258 669 218T595 133T468 31H658L653 0H407Z" />
<glyph unicode="&#xbe;" glyph-name="threequarters" horiz-adv-x="749" d="M177 258Q131 258 99 282T50 338L78 356Q92 328 116 309T178 289Q217 289 246 311T275 374Q275 407 246 432T156 457L163 486Q212 486 242 499T285 534T299 576Q299 605 280 623T227
641Q180 641 134 604L117 631Q168 672 231 672Q277 672 306 647T335 578Q335 541 309 511T238 468Q276 457 294 431T312 379Q312 341 294 314T244 272T177 258ZM160 -12L650 672H686L196 -12H160ZM467 145H597L615 237L640 338H636L565 256L467 145ZM568 0L591
116H420L424 138L648 390H679L630 145H688L681 116H624L601 0H568Z" />
<glyph unicode="&#xbf;" glyph-name="questiondown" horiz-adv-x="388" d="M129 -200Q67 -200 31 -165T-5 -69Q-5 -19 15 18T67 86T129 149T183 217T208 302L245 299Q243 247 221 208T168 137T107 76T56 14T35 -61Q35 -110 61 -137T133 -164Q167 -164 199 -147T255
-105L279 -132Q254 -160 214 -180T129 -200ZM243 406Q227 406 220 416T212 443Q212 463 226 478T259 494Q275 494 283 484T292 459Q292 440 278 423T243 406Z" />
<glyph unicode="&#xc0;" glyph-name="Agrave" horiz-adv-x="488" d="M210 391L142 264H370L355 391Q350 446 344 502T332 616H328Q299 556 270 502T210 391ZM-48 0L315 659H362L443 0H400L374 229H123L0 0H-48ZM367 702L251 826L283 854L391 723L367 702Z" />
<glyph unicode="&#xc1;" glyph-name="Aacute" horiz-adv-x="488" d="M210 391L142 264H370L355 391Q350 446 344 502T332 616H328Q299 556 270 502T210 391ZM-48 0L315 659H362L443 0H400L374 229H123L0 0H-48ZM325 712L308 736L454 848L478 813L325 712Z" />
<glyph unicode="&#xc2;" glyph-name="Acircumflex" horiz-adv-x="488" d="M210 391L142 264H370L355 391Q350 446 344 502T332 616H328Q299 556 270 502T210 391ZM-48 0L315 659H362L443 0H400L374 229H123L0 0H-48ZM235 706L216 725L349 838H393L485 725L463
708L370 806H366L235 706Z" />
<glyph unicode="&#xc3;" glyph-name="Atilde" horiz-adv-x="488" d="M210 391L142 264H370L355 391Q350 446 344 502T332 616H328Q299 556 270 502T210 391ZM-48 0L315 659H362L443 0H400L374 229H123L0 0H-48ZM426 718Q401 718 384 730T353 758T326 787T293 799Q271
799 253 778T224 721L193 724Q202 773 230 803T300 834Q326 834 342 822T372 794T400 766T433 754Q455 754 472 775T502 832L532 829Q524 780 496 749T426 718Z" />
<glyph unicode="&#xc4;" glyph-name="Adieresis" horiz-adv-x="488" d="M210 391L142 264H370L355 391Q350 446 344 502T332 616H328Q299 556 270 502T210 391ZM-48 0L315 659H362L443 0H400L374 229H123L0 0H-48ZM270 723Q240 723 240 753Q240 771 251 783T277
795Q307 795 307 764Q307 748 296 736T270 723ZM441 723Q411 723 411 753Q411 771 422 783T448 795Q478 795 478 764Q478 748 467 736T441 723Z" />
<glyph unicode="&#xc5;" glyph-name="Aring" horiz-adv-x="488" d="M210 391L142 264H370L355 391Q350 446 344 502T332 616H328Q299 556 270 502T210 391ZM-48 0L315 659H362L443 0H400L374 229H123L0 0H-48ZM353 701Q323 701 300 720T277 777Q277 815 305 842T373
869Q403 869 426 851T449 794Q449 755 422 728T353 701ZM355 727Q381 727 400 745T419 791Q419 843 371 843Q346 843 327 825T307 779Q307 755 320 741T355 727Z" />
<glyph unicode="&#xc6;" glyph-name="AE" horiz-adv-x="782" d="M298 389L200 253H395L469 622H465Q423 564 382 506T298 389ZM-32 0L449 659H810L802 622H511L460 368H705L697 331H454L394 37H695L687 0H345L388 217H174L18 0H-32Z" />
<glyph unicode="&#xc7;" glyph-name="Ccedilla" horiz-adv-x="540" d="M281 -12Q207 -12 158 22T83 115T58 248Q58 322 80 396T146 533T252 633T392 671Q448 671 485 644T546 578L514 555Q495 589 464 611T389 634Q321 634 268 599T177 507T121 384T101 254Q101
189 120 137T181 55T286 25Q332 25 369 42T442 89L465 61Q425 27 381 8T281 -12ZM150 -219L148 -191Q210 -189 240 -173T271 -132Q271 -93 203 -87L260 2H295L253 -67Q288 -76 299 -89T310 -125Q309 -169 265 -193T150 -219Z" />
<glyph unicode="&#xc8;" glyph-name="Egrave" horiz-adv-x="489" d="M39 0L170 659H518L510 622H205L154 368H412L404 331H148L88 37H402L394 0H39ZM382 702L266 826L298 854L406 723L382 702Z" />
<glyph unicode="&#xc9;" glyph-name="Eacute" horiz-adv-x="489" d="M39 0L170 659H518L510 622H205L154 368H412L404 331H148L88 37H402L394 0H39ZM340 712L323 736L469 848L493 813L340 712Z" />
<glyph unicode="&#xca;" glyph-name="Ecircumflex" horiz-adv-x="489" d="M39 0L170 659H518L510 622H205L154 368H412L404 331H148L88 37H402L394 0H39ZM250 706L231 725L364 838H408L500 725L478 708L385 806H381L250 706Z" />
<glyph unicode="&#xcb;" glyph-name="Edieresis" horiz-adv-x="489" d="M39 0L170 659H518L510 622H205L154 368H412L404 331H148L88 37H402L394 0H39ZM285 723Q255 723 255 753Q255 771 266 783T292 795Q322 795 322 764Q322 748 311 736T285 723ZM456 723Q426
723 426 753Q426 771 437 783T463 795Q493 795 493 764Q493 748 482 736T456 723Z" />
<glyph unicode="&#xcc;" glyph-name="Igrave" horiz-adv-x="227" d="M39 0L170 659H213L82 0H39ZM226 702L110 826L142 854L250 723L226 702Z" />
<glyph unicode="&#xcd;" glyph-name="Iacute" horiz-adv-x="227" d="M39 0L170 659H213L82 0H39ZM184 712L167 736L313 848L337 813L184 712Z" />
<glyph unicode="&#xce;" glyph-name="Icircumflex" horiz-adv-x="227" d="M39 0L170 659H213L82 0H39ZM94 962L75 981L208 1094H252L344 981L322 964L229 1062H225L94 962Z" />
<glyph unicode="&#xcf;" glyph-name="Idieresis" horiz-adv-x="227" d="M39 0L170 659H213L82 0H39ZM129 723Q99 723 99 753Q99 771 110 783T136 795Q166 795 166 764Q166 748 155 736T129 723ZM300 723Q270 723 270 753Q270 771 281 783T307 795Q337 795 337
764Q337 748 326 736T300 723Z" />
<glyph unicode="&#xd0;" glyph-name="Eth" horiz-adv-x="595" d="M57 0L123 334H52L59 363L130 365L188 659H297Q434 659 501 589T569 403Q569 289 529 198T410 53T217 0H57ZM106 36H218Q292 36 349 64T445 143T505 259T526 400Q526 500 469 561T295 623H223L172
365H336L329 334H165L106 36Z" />
<glyph unicode="&#xd1;" glyph-name="Ntilde" horiz-adv-x="605" d="M39 0L170 659H216L391 191L437 57H441Q449 104 456 154T473 251L554 659H597L465 0H421L248 466L200 605H196Q189 556 181 508T162 413L81 0H39ZM477 718Q452 718 435 730T404 758T377 787T344
799Q322 799 304 778T275 721L244 724Q253 773 281 803T351 834Q377 834 393 822T423 794T451 766T484 754Q506 754 523 775T553 832L583 829Q575 780 547 749T477 718Z" />
<glyph unicode="&#xd2;" glyph-name="Ograve" horiz-adv-x="618" d="M277 -12Q205 -12 157 23T85 120T61 262Q61 317 75 374T115 485T179 580T267 646T374 671Q447 671 494 636T566 540T590 397Q590 328 569 257T507 124T409 26T277 -12ZM280 25Q343 25 393 60T477
150T529 270T547 392Q547 464 529 518T472 603T371 634Q308 634 259 599T175 509T123 389T105 267Q105 196 123 141T180 56T280 25ZM427 702L311 826L343 854L451 723L427 702Z" />
<glyph unicode="&#xd3;" glyph-name="Oacute" horiz-adv-x="618" d="M277 -12Q205 -12 157 23T85 120T61 262Q61 317 75 374T115 485T179 580T267 646T374 671Q447 671 494 636T566 540T590 397Q590 328 569 257T507 124T409 26T277 -12ZM280 25Q343 25 393 60T477
150T529 270T547 392Q547 464 529 518T472 603T371 634Q308 634 259 599T175 509T123 389T105 267Q105 196 123 141T180 56T280 25ZM385 712L368 736L514 848L538 813L385 712Z" />
<glyph unicode="&#xd4;" glyph-name="Ocircumflex" horiz-adv-x="618" d="M277 -12Q205 -12 157 23T85 120T61 262Q61 317 75 374T115 485T179 580T267 646T374 671Q447 671 494 636T566 540T590 397Q590 328 569 257T507 124T409 26T277 -12ZM280 25Q343 25 393
60T477 150T529 270T547 392Q547 464 529 518T472 603T371 634Q308 634 259 599T175 509T123 389T105 267Q105 196 123 141T180 56T280 25ZM295 706L276 725L409 838H453L545 725L523 708L430 806H426L295 706Z" />
<glyph unicode="&#xd5;" glyph-name="Otilde" horiz-adv-x="618" d="M277 -12Q205 -12 157 23T85 120T61 262Q61 317 75 374T115 485T179 580T267 646T374 671Q447 671 494 636T566 540T590 397Q590 328 569 257T507 124T409 26T277 -12ZM280 25Q343 25 393 60T477
150T529 270T547 392Q547 464 529 518T472 603T371 634Q308 634 259 599T175 509T123 389T105 267Q105 196 123 141T180 56T280 25ZM486 718Q461 718 444 730T413 758T386 787T353 799Q331 799 313 778T284 721L253 724Q262 773 290 803T360 834Q386 834 402 822T432
794T460 766T493 754Q515 754 532 775T562 832L592 829Q584 780 556 749T486 718Z" />
<glyph unicode="&#xd6;" glyph-name="Odieresis" horiz-adv-x="618" d="M277 -12Q205 -12 157 23T85 120T61 262Q61 317 75 374T115 485T179 580T267 646T374 671Q447 671 494 636T566 540T590 397Q590 328 569 257T507 124T409 26T277 -12ZM280 25Q343 25 393
60T477 150T529 270T547 392Q547 464 529 518T472 603T371 634Q308 634 259 599T175 509T123 389T105 267Q105 196 123 141T180 56T280 25ZM330 723Q300 723 300 753Q300 771 311 783T337 795Q367 795 367 764Q367 748 356 736T330 723ZM501 723Q471 723 471 753Q471
771 482 783T508 795Q538 795 538 764Q538 748 527 736T501 723Z" />
<glyph unicode="&#xd7;" glyph-name="multiply" horiz-adv-x="462" d="M90 145L66 169L221 332L66 493L90 517L245 356L400 517L424 493L269 332L424 169L400 145L245 308L90 145Z" />
<glyph unicode="&#xd8;" glyph-name="Oslash" horiz-adv-x="618" d="M27 -24L1 -2L94 99Q61 165 61 262Q61 317 75 374T115 485T179 580T267 646T374 671Q432 671 474 649T542 586L629 680L650 658L558 558Q575 525 582 485T590 397Q590 328 569 257T507 124T409
26T277 -12Q222 -12 181 9T112 69L27 -24ZM105 267Q105 190 126 133L513 554Q492 592 457 613T371 634Q308 634 259 599T175 509T123 389T105 267ZM280 25Q343 25 393 60T477 150T529 270T547 392Q547 430 543 462T527 523L141 101Q162 65 196 45T280 25Z" />
<glyph unicode="&#xd9;" glyph-name="Ugrave" horiz-adv-x="600" d="M273 -12Q182 -12 132 39T81 184Q81 204 83 224T90 269L168 659H211L134 273Q128 250 126 230T124 192Q124 113 162 69T277 25Q319 25 356 46T423 116T468 242L551 659H594L509 236Q491 145
455 91T373 12T273 -12ZM417 702L301 826L333 854L441 723L417 702Z" />
<glyph unicode="&#xda;" glyph-name="Uacute" horiz-adv-x="600" d="M273 -12Q182 -12 132 39T81 184Q81 204 83 224T90 269L168 659H211L134 273Q128 250 126 230T124 192Q124 113 162 69T277 25Q319 25 356 46T423 116T468 242L551 659H594L509 236Q491 145
455 91T373 12T273 -12ZM375 712L358 736L504 848L528 813L375 712Z" />
<glyph unicode="&#xdb;" glyph-name="Ucircumflex" horiz-adv-x="600" d="M273 -12Q182 -12 132 39T81 184Q81 204 83 224T90 269L168 659H211L134 273Q128 250 126 230T124 192Q124 113 162 69T277 25Q319 25 356 46T423 116T468 242L551 659H594L509 236Q491
145 455 91T373 12T273 -12ZM285 706L266 725L399 838H443L535 725L513 708L420 806H416L285 706Z" />
<glyph unicode="&#xdc;" glyph-name="Udieresis" horiz-adv-x="600" d="M273 -12Q182 -12 132 39T81 184Q81 204 83 224T90 269L168 659H211L134 273Q128 250 126 230T124 192Q124 113 162 69T277 25Q319 25 356 46T423 116T468 242L551 659H594L509 236Q491 145
455 91T373 12T273 -12ZM320 723Q290 723 290 753Q290 771 301 783T327 795Q357 795 357 764Q357 748 346 736T320 723ZM491 723Q461 723 461 753Q461 771 472 783T498 795Q528 795 528 764Q528 748 517 736T491 723Z" />
<glyph unicode="&#xdd;" glyph-name="Yacute" horiz-adv-x="433" d="M140 0L194 268L85 659H129L184 451Q194 415 202 380T221 308H224Q248 344 272 380T320 451L464 659H510L237 268L183 0H140ZM284 712L267 736L413 848L437 813L284 712Z" />
<glyph unicode="&#xde;" glyph-name="Thorn" horiz-adv-x="543" d="M39 0L170 660H213L190 538H320Q410 538 462 502T514 386Q514 274 438 220T235 165H114L81 0H39ZM122 201H231Q350 201 410 247T471 381Q471 446 428 474T301 502H182L122 201Z" />
<glyph unicode="&#xdf;" glyph-name="germandbls" horiz-adv-x="524" d="M318 -12Q283 -12 247 2T182 41L205 69Q231 48 258 36T319 23Q365 23 398 52T432 127Q432 161 416 184T377 226T329 262T289 301T273 354Q273 388 287 413T323 458T366 500T402 546T417
607Q417 645 399 670T336 695Q299 695 269 672T217 610T186 524L82 0H40L148 536Q159 589 185 633T250 704T339 731Q392 731 425 700T458 610Q458 570 444 542T408 491T365 450T329 410T314 362Q314 335 330 316T369 279T416 243T456 198T472 134Q472 94 453 61T398
8T318 -12Z" />
<glyph unicode="&#xe0;" glyph-name="agrave" horiz-adv-x="527" d="M184 -12Q121 -12 83 32T44 161Q44 230 66 290T125 396T208 466T305 492Q347 492 378 471T429 414H432L451 480H485L389 0H354L365 76H361Q324 38 279 13T184 -12ZM193 24Q240 24 285 51T373
128L423 369Q397 416 368 436T304 456Q261 456 222 432T153 367T104 274T86 169Q86 96 115 60T193 24ZM361 570L242 731L279 758L388 590L361 570Z" />
<glyph unicode="&#xe1;" glyph-name="aacute" horiz-adv-x="527" d="M184 -12Q121 -12 83 32T44 161Q44 230 66 290T125 396T208 466T305 492Q347 492 378 471T429 414H432L451 480H485L389 0H354L365 76H361Q324 38 279 13T184 -12ZM193 24Q240 24 285 51T373
128L423 369Q397 416 368 436T304 456Q261 456 222 432T153 367T104 274T86 169Q86 96 115 60T193 24ZM296 580L275 605L433 750L460 716L296 580Z" />
<glyph unicode="&#xe2;" glyph-name="acircumflex" horiz-adv-x="527" d="M184 -12Q121 -12 83 32T44 161Q44 230 66 290T125 396T208 466T305 492Q347 492 378 471T429 414H432L451 480H485L389 0H354L365 76H361Q324 38 279 13T184 -12ZM193 24Q240 24 285 51T373
128L423 369Q397 416 368 436T304 456Q261 456 222 432T153 367T104 274T86 169Q86 96 115 60T193 24ZM210 572L189 593L331 737H374L465 591L440 572L352 700H348L210 572Z" />
<glyph unicode="&#xe3;" glyph-name="atilde" horiz-adv-x="527" d="M184 -12Q121 -12 83 32T44 161Q44 230 66 290T125 396T208 466T305 492Q347 492 378 471T429 414H432L451 480H485L389 0H354L365 76H361Q324 38 279 13T184 -12ZM193 24Q240 24 285 51T373
128L423 369Q397 416 368 436T304 456Q261 456 222 432T153 367T104 274T86 169Q86 96 115 60T193 24ZM408 579Q381 579 365 594T337 628T312 662T277 677Q250 677 233 650T208 582L174 584Q182 616 195 645T229 692T281 710Q307 710 323 696T351 662T377 628T412
613Q439 613 455 641T481 707L515 705Q508 674 495 645T460 598T408 579Z" />
<glyph unicode="&#xe4;" glyph-name="adieresis" horiz-adv-x="527" d="M184 -12Q121 -12 83 32T44 161Q44 230 66 290T125 396T208 466T305 492Q347 492 378 471T429 414H432L451 480H485L389 0H354L365 76H361Q324 38 279 13T184 -12ZM193 24Q240 24 285 51T373
128L423 369Q397 416 368 436T304 456Q261 456 222 432T153 367T104 274T86 169Q86 96 115 60T193 24ZM248 598Q218 598 218 628Q218 646 229 658T255 671Q285 671 285 639Q285 622 274 610T248 598ZM419 598Q406 598 398 606T389 628Q389 646 400 658T426 671Q456
671 456 639Q456 622 445 610T419 598Z" />
<glyph unicode="&#xe5;" glyph-name="aring" horiz-adv-x="527" d="M184 -12Q121 -12 83 32T44 161Q44 230 66 290T125 396T208 466T305 492Q347 492 378 471T429 414H432L451 480H485L389 0H354L365 76H361Q324 38 279 13T184 -12ZM193 24Q240 24 285 51T373
128L423 369Q397 416 368 436T304 456Q261 456 222 432T153 367T104 274T86 169Q86 96 115 60T193 24ZM329 550Q294 550 270 570T245 628Q245 672 273 704T348 737Q383 737 407 717T432 659Q432 616 404 583T329 550ZM332 576Q360 576 380 600T401 657Q401 681
386 696T345 711Q317 711 297 687T276 630Q276 605 291 591T332 576Z" />
<glyph unicode="&#xe6;" glyph-name="ae" horiz-adv-x="765" d="M158 -12Q110 -12 74 17T38 103Q38 170 78 211T193 272T365 296Q372 330 372 353Q372 403 351 429T278 456Q244 456 208 443T136 410L121 442Q156 462 199 477T283 492Q336 492 369 465T407 380Q442
432 489 462T585 492Q663 492 696 444T729 322Q729 297 725 275T716 238H395Q383 175 396 127T442 51T523 23Q556 23 587 37T645 70L663 40Q635 19 598 4T518 -12Q466 -12 425 18T367 93Q317 44 265 16T158 -12ZM170 24Q207 24 256 49T356 126Q350 165 351 195T359
263Q232 260 156 223T79 112Q79 69 105 47T170 24ZM401 271H685Q691 300 691 328Q691 361 681 390T646 438T581 457Q545 457 508 433T443 368T401 271Z" />
<glyph unicode="&#xe7;" glyph-name="ccedilla" horiz-adv-x="430" d="M212 -12Q135 -12 89 37T42 178Q42 248 64 305T123 405T206 469T301 492Q342 492 370 476T422 434L396 406Q374 432 353 444T298 456Q258 456 220 435T151 375T102 288T84 184Q84 106 117
65T217 24Q253 24 284 39T341 74L362 44Q336 25 299 7T212 -12ZM80 -219L78 -191Q140 -189 170 -173T201 -132Q201 -93 133 -87L190 2H225L183 -67Q218 -76 229 -89T240 -125Q239 -169 195 -193T80 -219Z" />
<glyph unicode="&#xe8;" glyph-name="egrave" horiz-adv-x="471" d="M225 -12Q142 -12 92 38T42 186Q42 254 63 310T121 407T201 470T292 492Q370 492 403 444T436 322Q436 297 432 275T423 238H88Q75 163 92 116T146 46T231 23Q263 23 294 37T351 70L370 40Q341
19 304 4T225 -12ZM94 271H392Q398 300 398 328Q398 361 388 390T353 438T288 457Q246 457 206 433T137 368T94 271ZM343 570L224 731L261 758L370 590L343 570Z" />
<glyph unicode="&#xe9;" glyph-name="eacute" horiz-adv-x="471" d="M225 -12Q142 -12 92 38T42 186Q42 254 63 310T121 407T201 470T292 492Q370 492 403 444T436 322Q436 297 432 275T423 238H88Q75 163 92 116T146 46T231 23Q263 23 294 37T351 70L370 40Q341
19 304 4T225 -12ZM94 271H392Q398 300 398 328Q398 361 388 390T353 438T288 457Q246 457 206 433T137 368T94 271ZM278 580L257 605L415 750L442 716L278 580Z" />
<glyph unicode="&#xea;" glyph-name="ecircumflex" horiz-adv-x="471" d="M225 -12Q142 -12 92 38T42 186Q42 254 63 310T121 407T201 470T292 492Q370 492 403 444T436 322Q436 297 432 275T423 238H88Q75 163 92 116T146 46T231 23Q263 23 294 37T351 70L370
40Q341 19 304 4T225 -12ZM94 271H392Q398 300 398 328Q398 361 388 390T353 438T288 457Q246 457 206 433T137 368T94 271ZM192 572L171 593L313 737H356L447 591L422 572L334 700H330L192 572Z" />
<glyph unicode="&#xeb;" glyph-name="edieresis" horiz-adv-x="471" d="M225 -12Q142 -12 92 38T42 186Q42 254 63 310T121 407T201 470T292 492Q370 492 403 444T436 322Q436 297 432 275T423 238H88Q75 163 92 116T146 46T231 23Q263 23 294 37T351 70L370 40Q341
19 304 4T225 -12ZM94 271H392Q398 300 398 328Q398 361 388 390T353 438T288 457Q246 457 206 433T137 368T94 271ZM230 598Q200 598 200 628Q200 646 211 658T237 671Q267 671 267 639Q267 622 256 610T230 598ZM401 598Q388 598 380 606T371 628Q371 646 382
658T408 671Q438 671 438 639Q438 622 427 610T401 598Z" />
<glyph unicode="&#xec;" glyph-name="igrave" horiz-adv-x="220" d="M40 0L137 480H178L82 0H40ZM215 570L96 731L133 758L242 590L215 570Z" />
<glyph unicode="&#xed;" glyph-name="iacute" horiz-adv-x="220" d="M40 0L137 480H178L82 0H40ZM150 580L129 605L287 750L314 716L150 580Z" />
<glyph unicode="&#xee;" glyph-name="icircumflex" horiz-adv-x="220" d="M40 0L137 480H178L82 0H40ZM64 572L43 593L185 737H228L319 591L294 572L206 700H202L64 572Z" />
<glyph unicode="&#xef;" glyph-name="idieresis" horiz-adv-x="220" d="M40 0L137 480H178L82 0H40ZM102 598Q72 598 72 628Q72 646 83 658T109 671Q139 671 139 639Q139 622 128 610T102 598ZM273 598Q260 598 252 606T243 628Q243 646 254 658T280 671Q310 671
310 639Q310 622 299 610T273 598Z" />
<glyph unicode="&#xf0;" glyph-name="eth" horiz-adv-x="517" d="M88 171Q88 132 103 99T147 45T218 24Q274 24 317 64T385 170T413 314Q391 349 360 377T282 406Q224 406 180 372T112 284T88 171ZM212 -12Q164 -12 127 12T69 76T48 166Q48 219 64 268T111 357T185
419T281 442Q321 442 354 420T413 363Q411 432 393 486T344 584L195 521L185 548L326 608Q304 634 278 656T222 697L243 724Q277 703 306 678T361 622L507 684L517 657L379 599Q414 550 434 486T454 342Q454 269 437 205T388 92T312 16T212 -12Z" />
<glyph unicode="&#xf1;" glyph-name="ntilde" horiz-adv-x="510" d="M40 0L137 480H171L161 404H165Q209 442 250 467T336 492Q398 492 424 460T450 375Q450 357 449 344T442 310L380 0H339L401 304Q405 326 407 339T409 366Q409 410 389 432T323 455Q292 455
250 431T153 354L82 0H40ZM417 579Q390 579 374 594T346 628T321 662T286 677Q259 677 242 650T217 582L183 584Q191 616 204 645T238 692T290 710Q316 710 332 696T360 662T386 628T421 613Q448 613 464 641T490 707L524 705Q517 674 504 645T469 598T417 579Z"
/>
<glyph unicode="&#xf2;" glyph-name="ograve" horiz-adv-x="504" d="M206 -12Q133 -12 89 38T44 178Q44 246 65 303T122 402T203 468T297 492Q371 492 415 443T460 302Q460 235 439 178T382 78T301 12T206 -12ZM210 24Q249 24 286 45T353 105T400 192T418 297Q418
375 386 415T294 456Q255 456 218 435T151 375T103 288T85 184Q85 106 117 65T210 24ZM365 570L246 731L283 758L392 590L365 570Z" />
<glyph unicode="&#xf3;" glyph-name="oacute" horiz-adv-x="504" d="M206 -12Q133 -12 89 38T44 178Q44 246 65 303T122 402T203 468T297 492Q371 492 415 443T460 302Q460 235 439 178T382 78T301 12T206 -12ZM210 24Q249 24 286 45T353 105T400 192T418 297Q418
375 386 415T294 456Q255 456 218 435T151 375T103 288T85 184Q85 106 117 65T210 24ZM300 580L279 605L437 750L464 716L300 580Z" />
<glyph unicode="&#xf4;" glyph-name="ocircumflex" horiz-adv-x="504" d="M206 -12Q133 -12 89 38T44 178Q44 246 65 303T122 402T203 468T297 492Q371 492 415 443T460 302Q460 235 439 178T382 78T301 12T206 -12ZM210 24Q249 24 286 45T353 105T400 192T418
297Q418 375 386 415T294 456Q255 456 218 435T151 375T103 288T85 184Q85 106 117 65T210 24ZM214 572L193 593L335 737H378L469 591L444 572L356 700H352L214 572Z" />
<glyph unicode="&#xf5;" glyph-name="otilde" horiz-adv-x="504" d="M206 -12Q133 -12 89 38T44 178Q44 246 65 303T122 402T203 468T297 492Q371 492 415 443T460 302Q460 235 439 178T382 78T301 12T206 -12ZM210 24Q249 24 286 45T353 105T400 192T418 297Q418
375 386 415T294 456Q255 456 218 435T151 375T103 288T85 184Q85 106 117 65T210 24ZM412 579Q385 579 369 594T341 628T316 662T281 677Q254 677 237 650T212 582L178 584Q186 616 199 645T233 692T285 710Q311 710 327 696T355 662T381 628T416 613Q443 613
459 641T485 707L519 705Q512 674 499 645T464 598T412 579Z" />
<glyph unicode="&#xf6;" glyph-name="odieresis" horiz-adv-x="504" d="M206 -12Q133 -12 89 38T44 178Q44 246 65 303T122 402T203 468T297 492Q371 492 415 443T460 302Q460 235 439 178T382 78T301 12T206 -12ZM210 24Q249 24 286 45T353 105T400 192T418 297Q418
375 386 415T294 456Q255 456 218 435T151 375T103 288T85 184Q85 106 117 65T210 24ZM252 598Q222 598 222 628Q222 646 233 658T259 671Q289 671 289 639Q289 622 278 610T252 598ZM423 598Q410 598 402 606T393 628Q393 646 404 658T430 671Q460 671 460 639Q460
622 449 610T423 598Z" />
<glyph unicode="&#xf7;" glyph-name="divide" horiz-adv-x="462" d="M48 314V348H442V314H48ZM245 109Q229 109 219 120T209 148Q209 164 219 174T245 185Q261 185 271 175T281 148Q281 132 271 121T245 109ZM245 473Q229 473 219 484T209 512Q209 528 219 538T245
549Q261 549 271 539T281 512Q281 496 271 485T245 473Z" />
<glyph unicode="&#xf8;" glyph-name="oslash" horiz-adv-x="504" d="M84 184Q84 135 98 99L394 404Q362 456 294 456Q255 456 218 434T150 374T102 287T84 184ZM21 -22L0 -2L68 68Q44 112 44 178Q44 246 65 303T122 402T203 468T297 492Q380 492 422 433L488 501L509
480L438 407Q460 363 460 302Q460 235 439 178T382 78T301 12T206 -12Q128 -12 84 43L21 -22ZM209 24Q249 24 286 46T354 106T401 193T419 296Q419 342 407 376L112 71Q144 24 209 24Z" />
<glyph unicode="&#xf9;" glyph-name="ugrave" horiz-adv-x="518" d="M181 -12Q120 -12 93 20T66 105Q66 123 68 136T74 170L136 480H177L116 176Q112 154 110 141T108 114Q108 70 128 48T193 25Q225 25 267 49T363 126L434 480H475L379 0H345L355 78H351Q308 41
267 15T181 -12ZM356 570L237 731L274 758L383 590L356 570Z" />
<glyph unicode="&#xfa;" glyph-name="uacute" horiz-adv-x="518" d="M181 -12Q120 -12 93 20T66 105Q66 123 68 136T74 170L136 480H177L116 176Q112 154 110 141T108 114Q108 70 128 48T193 25Q225 25 267 49T363 126L434 480H475L379 0H345L355 78H351Q308 41
267 15T181 -12ZM291 580L270 605L428 750L455 716L291 580Z" />
<glyph unicode="&#xfb;" glyph-name="ucircumflex" horiz-adv-x="518" d="M181 -12Q120 -12 93 20T66 105Q66 123 68 136T74 170L136 480H177L116 176Q112 154 110 141T108 114Q108 70 128 48T193 25Q225 25 267 49T363 126L434 480H475L379 0H345L355 78H351Q308
41 267 15T181 -12ZM205 572L184 593L326 737H369L460 591L435 572L347 700H343L205 572Z" />
<glyph unicode="&#xfc;" glyph-name="udieresis" horiz-adv-x="518" d="M181 -12Q120 -12 93 20T66 105Q66 123 68 136T74 170L136 480H177L116 176Q112 154 110 141T108 114Q108 70 128 48T193 25Q225 25 267 49T363 126L434 480H475L379 0H345L355 78H351Q308
41 267 15T181 -12ZM243 598Q213 598 213 628Q213 646 224 658T250 671Q280 671 280 639Q280 622 269 610T243 598ZM414 598Q401 598 393 606T384 628Q384 646 395 658T421 671Q451 671 451 639Q451 622 440 610T414 598Z" />
<glyph unicode="&#xfd;" glyph-name="yacute" horiz-adv-x="419" d="M-31 -219Q-39 -219 -51 -217T-78 -207L-62 -174Q-45 -183 -28 -183Q15 -183 52 -147T119 -49L140 -8L59 480H100L147 179Q152 145 157 107T167 36H171Q189 71 208 107T246 179L408 480H450L154
-59Q133 -99 107 -135T47 -195T-31 -219ZM236 580L215 605L373 750L400 716L236 580Z" />
<glyph unicode="&#xfe;" glyph-name="thorn" horiz-adv-x="524" d="M-3 -217L184 719H225L183 510L162 413H164Q202 444 247 468T341 492Q405 492 443 448T481 319Q481 250 460 190T401 84T317 14T221 -12Q179 -12 147 10T94 65H92L71 -43L38 -217H-3ZM221 24Q264
24 303 48T373 113T422 206T440 312Q440 384 411 420T332 456Q292 456 244 431T155 367L103 107Q129 62 158 43T221 24Z" />
<glyph unicode="&#xff;" glyph-name="ydieresis" horiz-adv-x="419" d="M-31 -219Q-39 -219 -51 -217T-78 -207L-62 -174Q-45 -183 -28 -183Q15 -183 52 -147T119 -49L140 -8L59 480H100L147 179Q152 145 157 107T167 36H171Q189 71 208 107T246 179L408 480H450L154
-59Q133 -99 107 -135T47 -195T-31 -219ZM188 598Q158 598 158 628Q158 646 169 658T195 671Q225 671 225 639Q225 622 214 610T188 598ZM359 598Q346 598 338 606T329 628Q329 646 340 658T366 671Q396 671 396 639Q396 622 385 610T359 598Z" />
<glyph unicode="&#x2013;" glyph-name="endash" horiz-adv-x="462" d="M36 234L43 268H426L417 234H36Z" />
<glyph unicode="&#x2014;" glyph-name="emdash" horiz-adv-x="768" d="M36 234L43 268H733L725 234H36Z" />
<glyph unicode="&#x2018;" glyph-name="quoteleft" horiz-adv-x="213" d="M158 481Q141 481 129 494T117 531Q117 588 147 631T226 699L239 674Q198 651 177 619T155 556H159Q175 556 185 548T196 522Q196 505 186 493T158 481Z" />
<glyph unicode="&#x2019;" glyph-name="quoteright" horiz-adv-x="213" d="M126 483L113 508Q154 531 175 563T197 626H193Q177 626 167 634T156 660Q156 677 167 689T195 701Q212 701 223 688T235 651Q235 594 205 551T126 483Z" />
<glyph unicode="&#x201a;" glyph-name="quotesinglbase" horiz-adv-x="213" d="M-3 -142L-16 -117Q25 -94 46 -62T68 1H64Q48 1 38 9T27 35Q27 52 38 64T66 76Q83 76 94 63T106 26Q106 -31 76 -74T-3 -142Z" />
<glyph unicode="&#x201c;" glyph-name="quotedblleft" horiz-adv-x="347" d="M158 481Q141 481 129 494T117 531Q117 588 147 631T226 699L239 674Q198 651 177 619T155 556H159Q175 556 185 548T196 522Q196 505 186 493T158 481ZM292 481Q275 481 263 494T251
531Q251 588 281 631T360 699L373 674Q332 651 311 619T289 556H293Q309 556 319 548T330 522Q330 505 320 493T292 481Z" />
<glyph unicode="&#x201d;" glyph-name="quotedblright" horiz-adv-x="347" d="M126 483L113 508Q154 531 175 563T197 626H193Q177 626 167 634T156 660Q156 677 167 689T195 701Q212 701 223 688T235 651Q235 594 205 551T126 483ZM260 483L247 508Q288 531 309
563T331 626H327Q311 626 301 634T290 660Q290 677 301 689T329 701Q346 701 357 688T369 651Q369 594 339 551T260 483Z" />
<glyph unicode="&#x201e;" glyph-name="quotedblbase" horiz-adv-x="347" d="M-3 -142L-16 -117Q25 -94 46 -62T68 1H64Q48 1 38 9T27 35Q27 52 38 64T66 76Q83 76 94 63T106 26Q106 -31 76 -74T-3 -142ZM131 -142L118 -117Q159 -94 180 -62T202 1H198Q182 1 172
9T161 35Q161 52 172 64T200 76Q217 76 228 63T240 26Q240 -31 210 -74T131 -142Z" />
<glyph unicode="&#x2022;" glyph-name="bullet" horiz-adv-x="274" d="M129 156Q92 156 67 182T42 251Q42 281 55 309T93 355T152 373Q188 373 213 347T238 278Q238 247 225 219T187 174T129 156Z" />
<glyph unicode="&#x2039;" glyph-name="guilsinglleft" horiz-adv-x="240" d="M142 72L40 236L47 276L205 430L224 410L78 251L166 87L142 72Z" />
<glyph unicode="&#x203a;" glyph-name="guilsinglright" horiz-adv-x="240" d="M40 72L21 92L167 251L78 415L103 430L205 266L197 226L40 72Z" />
</font>
</defs>
</svg>
