<?xml version="1.0" standalone="no"?>
<!DOCTYPE svg PUBLIC "-//W3C//DTD SVG 1.1//EN" "http://www.w3.org/Graphics/SVG/1.1/DTD/svg11.dtd">
<svg xmlns="http://www.w3.org/2000/svg">
<defs >
<font id="FiraCode" horiz-adv-x="1201" ><font-face
    font-family="Fira Code"
    units-per-em="2000"
    panose-1="2 11 8 9 5 0 0 2 0 4"
    ascent="1980"
    descent="-644"
    alphabetic="0" />
<glyph unicode=" " glyph-name="space" horiz-adv-x="1200" />
<glyph unicode="!" glyph-name="exclam" horiz-adv-x="1200" d="M689 1377L672 454H521L501 1377H689ZM598 245Q656 245 694 206T733 112Q733 56 695 17T598 -23Q541 -23 503 16T465 112Q465 167 503 206T598 245Z" />
<glyph unicode="&quot;" glyph-name="quotedbl" horiz-adv-x="1200" d="M359 957L327 1477H538L507 957H359ZM693 957L663 1477H873L841 957H693Z" />
<glyph unicode="#" glyph-name="numbersign" horiz-adv-x="1200" d="M917 912L858 469H1020V339H839L797 0H653L698 339H407L363 0H219L264 339H106V469H281L342 912H180V1043H359L403 1377H547L499 1043H793L837 1377H981L934 1043H1094V912H917ZM424 469H715L776
912H483L424 469Z" />
<glyph unicode="$" glyph-name="dollar" horiz-adv-x="1200" d="M691 1697V1396Q811 1383 904 1338T1059 1235L956 1129Q898 1183 832 1215T691 1257V801Q792 768 879 716T1021 583T1075 379Q1075 284 1032 201T904 60T691 -15V-306H556V-21Q414 -12 310 45T138
167L238 278Q301 214 379 172T556 121V675Q381 733 286 824T190 1055Q190 1136 230 1209T352 1334T556 1396V1697H691ZM691 628V130Q894 171 894 377Q894 461 850 521T691 628ZM556 1253Q474 1239 422 1191T369 1058Q369 988 407 939T556 845V1253Z" />
<glyph unicode="%" glyph-name="percent" horiz-adv-x="1200" d="M1009 1414L1117 1344L170 -40L65 30L1009 1414ZM872 511Q813 511 772 464T731 311Q731 214 771 160T872 106Q932 106 971 155T1011 311Q1011 419 972 465T872 511ZM332 1279Q273 1279 232 1230T191
1079Q191 981 231 928T332 874Q392 874 431 923T471 1079Q471 1187 432 1233T332 1279ZM332 1399Q426 1399 491 1355T590 1238T625 1079Q625 995 591 921T491 802T332 756Q239 756 173 801T72 921T37 1079Q37 1166 72 1238T173 1355T332 1399ZM872 632Q966 632
1031 588T1130 470T1165 311Q1165 226 1131 153T1031 34T872 -12Q779 -12 713 33T612 152T577 311Q577 398 612 471T713 588T872 632Z" />
<glyph unicode="&amp;" glyph-name="ampersand" horiz-adv-x="1200" d="M558 1397Q648 1397 729 1368T892 1249L791 1157Q740 1215 686 1243T556 1271Q451 1271 398 1215T345 1069Q345 1008 378 956T467 871T591 839H1147V707H968V163Q938 124 886 81T751 8T553
-23Q397 -23 299 37T154 191T107 389Q107 544 188 643T421 773V779Q330 800 278 844T203 947T180 1068Q180 1157 226 1231T357 1351T558 1397ZM815 707H567Q463 707 398 659T303 539T272 395Q272 323 301 258T393 153T557 113Q641 113 707 140T815 219V707Z" />
<glyph unicode="&apos;" glyph-name="quotesingle" horiz-adv-x="1200" d="M526 957L495 1477H705L674 957H526Z" />
<glyph unicode="(" glyph-name="parenleft" horiz-adv-x="1200" d="M425 700Q425 492 472 340T615 63T853 -188L765 -280Q603 -147 488 -8T311 302T249 700Q249 928 310 1099T487 1409T765 1680L853 1588Q745 1492 665 1400T531 1206T452 981T425 700Z" />
<glyph unicode=")" glyph-name="parenright" horiz-adv-x="1200" d="M775 700Q775 857 749 980T669 1205T536 1399T347 1588L435 1680Q598 1548 713 1409T889 1099T951 700Q951 473 890 302T713 -8T435 -280L347 -188Q490 -62 585 63T727 340T775 700Z" />
<glyph unicode="*" glyph-name="asterisk" horiz-adv-x="1200" d="M515 1157L528 752L148 887L97 729L484 615L237 295L371 197L600 531L829 197L963 295L716 615L1103 729L1052 887L672 752L685 1157H515Z" />
<glyph unicode="+" glyph-name="plus" horiz-adv-x="1200" d="M676 1091V692H1069V551H676V155H519V551H131V692H519V1091H676Z" />
<glyph unicode="," glyph-name="comma" horiz-adv-x="1200" d="M600 329Q669 329 715 282T762 169Q762 133 754 96T723 12L561 -359H409L505 36Q475 58 458 93T440 169Q440 236 486 282T600 329Z" />
<glyph unicode="-" glyph-name="hyphen" horiz-adv-x="1200" d="M199 553V699H1001V553H199Z" />
<glyph unicode="." glyph-name="period" horiz-adv-x="1200" d="M423 154Q423 203 446 242T508 305T598 329Q649 329 689 306T752 243T775 154Q775 105 752 65T689 1T598 -23Q548 -23 509 0T446 64T423 154Z" />
<glyph unicode="/" glyph-name="slash" horiz-adv-x="1200" d="M241 -206L105 -146L961 1619L1095 1553L241 -206Z" />
<glyph unicode="0" glyph-name="zero" horiz-adv-x="1200" d="M600 1399Q823 1399 937 1215T1051 689Q1051 346 937 162T600 -23Q378 -23 264 161T149 689Q149 1031 263 1215T600 1399ZM600 1264Q473 1264 400 1130T327 689Q327 483 356 356T445 171T600 113Q686
113 747 172T841 358T874 689Q874 895 846 1022T757 1206T600 1264ZM803 1215L847 1068L409 181L347 298L803 1215Z" />
<glyph unicode="1" glyph-name="one" horiz-adv-x="1200" d="M747 1377V40H579V1195L263 1003L190 1123L600 1377H747ZM1035 137V0H240V137H1035Z" />
<glyph unicode="2" glyph-name="two" horiz-adv-x="1200" d="M539 1399Q669 1399 761 1349T904 1212T954 1015Q954 920 921 830T816 640T626 419T337 143H986L965 0H146V137Q302 286 411 398T592 594T704 748T761 879T777 1009Q777 1125 712 1192T531 1259Q429
1259 364 1224T234 1112L118 1202Q200 1302 300 1350T539 1399Z" />
<glyph unicode="3" glyph-name="three" horiz-adv-x="1200" d="M537 1399Q667 1399 761 1353T908 1228T960 1055Q960 972 923 904T825 792T691 734Q772 728 843 689T959 577T1004 397Q1004 278 944 183T777 32T526 -23Q411 -23 297 21T103 161L216 253Q275 184
356 150T522 116Q666 116 747 191T828 397Q828 495 791 552T689 633T543 658H427L448 791H529Q596 791 655 816T753 896T791 1031Q791 1145 715 1205T531 1265Q441 1265 374 1234T239 1138L146 1241Q234 1324 333 1361T537 1399Z" />
<glyph unicode="4" glyph-name="four" horiz-adv-x="1200" d="M548 1399L688 1340L322 469H1057V335H144V457L548 1399ZM879 860V0H717L716 437L739 860H879Z" />
<glyph unicode="5" glyph-name="five" horiz-adv-x="1200" d="M974 1377L949 1243H405V809Q468 843 524 855T643 868Q755 868 840 818T972 670T1019 436Q1019 299 962 195T800 34T553 -23Q429 -23 332 21T154 143L258 243Q321 179 393 148T555 116Q691 116 767
198T843 441Q843 552 810 616T721 707T595 735Q534 735 487 724T380 689H245V1377H974Z" />
<glyph unicode="6" glyph-name="six" horiz-adv-x="1200" d="M671 1399Q751 1399 818 1379T943 1319L877 1205Q830 1234 778 1248T668 1263Q558 1263 481 1190T365 983T327 669L329 604Q329 350 396 232T615 113Q746 113 811 206T877 459Q877 629 810 694T633
759Q526 759 444 695T311 531L307 679Q375 795 462 846T659 897Q766 897 854 850T995 707T1049 463Q1049 311 991 203T834 36T616 -23Q490 -23 403 24T262 160T184 373T159 651Q159 879 219 1047T394 1307T671 1399Z" />
<glyph unicode="7" glyph-name="seven" horiz-adv-x="1200" d="M461 -19L304 29L841 1237H195V1377H1010V1248L461 -19Z" />
<glyph unicode="8" glyph-name="eight" horiz-adv-x="1200" d="M1013 1049Q1013 949 951 876T774 739Q909 683 989 590T1069 369Q1069 257 1011 168T848 28T596 -23Q449 -23 345 28T186 168T131 366Q131 493 206 580T407 725Q298 777 243 851T187 1040Q187 1135
225 1202T325 1314T459 1378T600 1399Q675 1399 748 1379T882 1316T977 1207T1013 1049ZM892 367Q892 460 845 514T715 604T523 677Q466 651 417 611T338 512T308 365Q308 248 380 181T595 113Q739 113 815 185T892 367ZM353 1038Q353 959 389 914T494 841T655
781Q751 836 799 892T847 1043Q847 1147 783 1208T600 1269Q483 1269 418 1208T353 1038Z" />
<glyph unicode="9" glyph-name="nine" horiz-adv-x="1200" d="M579 1397Q729 1397 829 1328T978 1133T1028 834Q1028 626 986 482T854 240T626 77T294 -42L255 86Q451 141 581 216T778 407T850 695L853 791Q854 963 825 1066T735 1215T579 1261Q445 1261 376 1179T307
939Q307 782 373 711T558 639Q661 639 736 697T878 853L877 707Q816 619 730 562T527 505Q412 505 323 558T184 709T133 945Q133 1092 193 1193T354 1345T579 1397Z" />
<glyph unicode=":" glyph-name="colon" horiz-adv-x="1200" d="M437 140Q437 205 483 253T598 301Q668 301 714 253T761 140Q761 72 715 25T598 -23Q530 -23 484 24T437 140ZM437 861Q437 928 483 975T598 1022Q668 1022 714 975T761 861Q761 795 715 747T598
698Q530 698 484 746T437 861Z" />
<glyph unicode=";" glyph-name="semicolon" horiz-adv-x="1200" d="M598 331Q668 331 714 284T761 171Q761 134 753 97T721 12L559 -360H407L503 37Q437 83 437 170Q437 237 483 284T598 331ZM598 1022Q668 1022 714 975T761 861Q761 795 715 747T598 698Q530
698 484 746T437 861Q437 928 483 975T598 1022Z" />
<glyph unicode="&lt;" glyph-name="less" horiz-adv-x="1200" d="M945 1188L1026 1059L320 626L1026 189L936 66L176 541V713L945 1188Z" />
<glyph unicode="=" glyph-name="equal" horiz-adv-x="1200" d="M989 884V739H211V884H989ZM989 505V359H211V505H989Z" />
<glyph unicode="&gt;" glyph-name="greater" horiz-adv-x="1200" d="M257 1188L1026 713V541L267 66L176 190L882 626L176 1061L257 1188Z" />
<glyph unicode="?" glyph-name="question" horiz-adv-x="1200" d="M599 1399Q722 1399 810 1355T946 1241T993 1091Q993 995 957 935T868 833T760 752T670 659T633 523V454H464V533Q464 630 499 694T588 803T694 886T783 970T819 1081Q819 1166 751 1212T582 1259Q511
1259 436 1225T299 1113L179 1201Q267 1304 372 1351T599 1399ZM553 245Q611 245 650 206T689 112Q689 56 650 17T553 -23Q497 -23 459 16T421 112Q421 167 459 206T553 245Z" />
<glyph unicode="@" glyph-name="at" horiz-adv-x="1200" d="M567 1399Q722 1399 828 1353T1002 1225T1106 1038T1157 812T1171 569Q1171 317 1148 151T1061 -98T877 -181Q815 -181 770 -151T696 -76T654 18T642 103H634Q616 57 583 13T495 -61T361 -91Q252 -91
186 -32T89 131T59 367Q59 628 163 755T451 883Q521 883 585 868T733 808V217Q733 109 752 53T803 -25T874 -46Q921 -46 947 1T984 132T997 327T999 567Q999 710 983 834T922 1053T792 1200T569 1253Q472 1253 358 1218T115 1069L19 1181Q153 1298 293 1348T567
1399ZM459 759Q322 759 272 660T222 367Q222 269 236 195T286 78T381 35Q451 35 491 67T553 140T587 211V729Q528 759 459 759Z" />
<glyph unicode="A" glyph-name="A" horiz-adv-x="1200" d="M867 351H322L212 0H41L489 1377H711L1159 0H977L867 351ZM367 495H822L596 1231L367 495Z" />
<glyph unicode="B" glyph-name="B" horiz-adv-x="1200" d="M896 387Q896 491 856 547T748 626T601 648H366V143H593Q644 143 697 153T795 189T868 262T896 387ZM841 1021Q841 1138 769 1187T571 1237H366V791H588Q710 791 775 845T841 1021ZM1079 393Q1079 281
1035 205T916 84T750 20T563 0H193V1377H532Q623 1377 709 1361T865 1305T977 1198T1019 1030Q1019 941 983 880T888 781T763 729Q840 717 912 683T1032 579T1079 393Z" />
<glyph unicode="C" glyph-name="C" horiz-adv-x="1200" d="M716 1399Q851 1399 942 1365T1115 1265L1018 1152Q953 1207 881 1230T729 1254Q616 1254 520 1201T366 1024T307 689Q307 484 362 360T513 181T725 126Q841 126 915 161T1045 241L1135 127Q1072 66 971
22T723 -23Q556 -23 421 59T206 299T127 689Q127 921 207 1079T422 1318T716 1399Z" />
<glyph unicode="D" glyph-name="D" horiz-adv-x="1200" d="M920 695Q920 875 882 983T782 1145T647 1217T502 1235H340V139H504Q578 139 651 162T786 246T883 415T920 695ZM1105 695Q1105 479 1049 343T901 132T700 29T483 0H167V1377H461Q582 1377 696 1350T903
1251T1050 1044T1105 695Z" />
<glyph unicode="E" glyph-name="E" horiz-adv-x="1200" d="M425 1235V771H935V628H425V139H1051V0H251V1377H1033L1013 1235H425Z" />
<glyph unicode="F" glyph-name="F" horiz-adv-x="1200" d="M449 1235V753H989V613H449V0H277V1377H1088L1067 1235H449Z" />
<glyph unicode="G" glyph-name="G" horiz-adv-x="1200" d="M627 -23Q464 -23 344 56T157 293T91 689Q91 867 138 1000T267 1222T452 1355T667 1399Q802 1399 891 1361T1061 1248L956 1139Q893 1198 824 1226T668 1254Q593 1254 523 1225T398 1131T310 957T277
689Q277 490 318 365T441 182T643 123Q715 123 779 140T905 189V609H634L613 753H1077V97Q984 47 879 12T627 -23Z" />
<glyph unicode="H" glyph-name="H" horiz-adv-x="1200" d="M860 0V653H340V0H167V1377H340V795H860V1377H1033V0H860Z" />
<glyph unicode="I" glyph-name="I" horiz-adv-x="1200" d="M994 1377V1238H688V139H994V0H206V139H512V1238H206V1377H994Z" />
<glyph unicode="J" glyph-name="J" horiz-adv-x="1200" d="M993 1377V457Q993 371 971 286T895 131T750 19T523 -23Q422 -23 325 9T145 102L222 217Q312 161 386 142T521 122Q665 122 742 214T820 467V1235H412V1377H993Z" />
<glyph unicode="K" glyph-name="K" horiz-adv-x="1200" d="M383 0H210V1377H383V0ZM393 735L935 1377H1135L597 746L1173 0H957L393 735Z" />
<glyph unicode="L" glyph-name="L" horiz-adv-x="1200" d="M271 0V1377H445V155H1073L1053 0H271Z" />
<glyph unicode="M" glyph-name="M" horiz-adv-x="1200" d="M1061 1377L1139 0H972L929 719Q926 792 923 867T919 1011T918 1134T918 1218L686 247H512L263 1218Q264 1189 265 1133T266 1005T266 860T261 721L224 0H61L139 1377H381L604 434L817 1377H1061Z" />
<glyph unicode="N" glyph-name="N" horiz-adv-x="1200" d="M790 0L305 1211Q306 1188 309 1135T317 1008T325 852T328 690V0H167V1377H402L895 161Q894 190 888 267T877 455T872 688V1377H1033V0H790Z" />
<glyph unicode="O" glyph-name="O" horiz-adv-x="1200" d="M1107 687Q1107 479 1051 319T881 68T600 -23Q433 -23 320 65T150 313T93 685Q93 894 149 1055T319 1307T600 1399Q768 1399 881 1310T1050 1061T1107 687ZM925 687Q925 962 850 1108T600 1254Q426 1254
351 1107T275 685Q275 410 353 267T600 123Q774 123 849 267T925 687Z" />
<glyph unicode="P" glyph-name="P" horiz-adv-x="1200" d="M928 952Q928 1059 886 1121T771 1211T604 1239H405V651H597Q694 651 768 677T885 769T928 952ZM1114 954Q1114 793 1046 696T857 555T581 511H405V0H231V1377H583Q829 1377 971 1274T1114 954Z" />
<glyph unicode="Q" glyph-name="Q" horiz-adv-x="1200" d="M1107 687Q1107 468 1044 305T822 53Q919 34 987 -4T1103 -107T1185 -274L1002 -346Q961 -240 909 -167T778 -57T580 -19Q422 -19 313 68T147 314T91 685Q91 894 148 1055T319 1307T599 1399Q767 1399
880 1310T1050 1061T1107 687ZM927 687Q927 963 851 1108T599 1254Q425 1254 348 1108T271 685Q271 410 350 267T599 123Q773 123 850 267T927 687Z" />
<glyph unicode="R" glyph-name="R" horiz-adv-x="1200" d="M1075 991Q1075 888 1031 811T910 684T739 611L1147 0H939L563 591H377V0H203V1377H557Q812 1377 943 1280T1075 991ZM889 991Q889 1124 813 1181T577 1239H377V727H577Q725 727 807 787T889 991Z" />
<glyph unicode="S" glyph-name="S" horiz-adv-x="1200" d="M1073 381Q1073 263 1014 172T843 29T570 -23Q419 -23 297 23T87 153L190 269Q262 202 355 163T573 123Q657 123 730 150T848 234T893 378Q893 445 867 492T775 575T591 647Q455 687 356 737T202 862T147
1045Q147 1148 204 1228T361 1353T593 1399Q736 1399 841 1359T1033 1242L931 1129Q857 1195 772 1224T599 1254Q524 1254 462 1232T362 1165T324 1051Q324 992 356 949T464 871T671 796Q778 765 869 719T1017 593T1073 381Z" />
<glyph unicode="T" glyph-name="T" horiz-adv-x="1200" d="M683 1228V0H510V1228H80V1377H1119L1101 1228H683Z" />
<glyph unicode="U" glyph-name="U" horiz-adv-x="1200" d="M1055 1377V446Q1055 307 999 201T840 36T598 -23Q456 -23 355 36T199 202T145 446V1377H317V440Q317 283 390 205T598 127Q733 127 806 205T880 440V1377H1055Z" />
<glyph unicode="V" glyph-name="V" horiz-adv-x="1200" d="M604 197L976 1377H1151L690 0H510L49 1377H236L604 197Z" />
<glyph unicode="W" glyph-name="W" horiz-adv-x="1200" d="M1191 1377L981 0H753L595 1039L436 0H203L9 1377H183L330 191L495 1217H708L865 191L1030 1377H1191Z" />
<glyph unicode="X" glyph-name="X" horiz-adv-x="1200" d="M99 1377H298L600 848L903 1377H1091L700 743L1138 0H939L596 622L249 0H62L494 734L99 1377Z" />
<glyph unicode="Y" glyph-name="Y" horiz-adv-x="1200" d="M688 531V0H512V529L47 1377H239L604 687L973 1377H1153L688 531Z" />
<glyph unicode="Z" glyph-name="Z" horiz-adv-x="1200" d="M334 150H1055L1034 0H143V141L871 1229H215V1377H1057V1235L334 150Z" />
<glyph unicode="[" glyph-name="bracketleft" horiz-adv-x="1200" d="M368 -231V1631H869V1486H527V-88H869V-231H368Z" />
<glyph unicode="\" glyph-name="backslash" horiz-adv-x="1200" d="M105 1553L239 1619L1095 -146L959 -206L105 1553Z" />
<glyph unicode="]" glyph-name="bracketright" horiz-adv-x="1200" d="M832 1631V-231H331V-89H673V1486H331V1631H832Z" />
<glyph unicode="^" glyph-name="asciicircum" horiz-adv-x="1200" d="M675 1679L1053 1054H870L598 1528L327 1054H147L525 1679H675Z" />
<glyph unicode="_" glyph-name="underscore" horiz-adv-x="1200" d="M100 -363V-216H1100V-363H100Z" />
<glyph unicode="`" glyph-name="grave" horiz-adv-x="1200" d="M773 1244L369 1430L459 1573L828 1337L773 1244Z" />
<glyph unicode="a" glyph-name="a" horiz-adv-x="1200" d="M955 230Q955 167 976 138T1041 95L1000 -23Q932 -14 881 20T807 125Q750 52 665 15T477 -23Q319 -23 228 66T137 302Q137 465 264 552T631 639H786V727Q786 841 720 888T535 936Q483 936 413 924T261
882L217 1009Q314 1045 399 1060T561 1075Q758 1075 856 984T955 735V230ZM520 105Q598 105 669 144T786 254V525H634Q460 525 389 465T317 304Q317 206 367 156T520 105Z" />
<glyph unicode="b" glyph-name="b" horiz-adv-x="1200" d="M369 916Q427 992 502 1033T669 1075Q810 1075 897 1007T1024 816T1064 527Q1064 368 1016 244T876 48T647 -23Q464 -23 360 109L348 0H201V1477L369 1498V916ZM607 113Q739 113 810 215T881 528Q881
666 853 757T770 894T633 940Q545 940 479 888T369 771V249Q410 187 472 150T607 113Z" />
<glyph unicode="c" glyph-name="c" horiz-adv-x="1200" d="M677 122Q756 122 824 148T951 214L1033 104Q964 45 867 11T677 -23Q520 -23 410 44T241 234T183 522Q183 680 241 805T410 1003T679 1075Q780 1075 868 1045T1031 953L949 841Q882 888 815 911T677 935Q541
935 453 833T365 522Q365 382 405 294T516 164T677 122Z" />
<glyph unicode="d" glyph-name="d" horiz-adv-x="1200" d="M831 1498L999 1477V0H852L836 139Q777 55 701 16T537 -23Q400 -23 311 46T179 238T136 525Q136 683 185 807T326 1003T549 1075Q640 1075 709 1044T831 951V1498ZM593 940Q461 940 390 837T319 525Q319
389 348 297T433 159T572 113Q662 113 725 164T831 279V805Q788 869 727 904T593 940Z" />
<glyph unicode="e" glyph-name="e" horiz-adv-x="1200" d="M333 467Q338 345 380 268T491 154T641 117Q722 117 787 141T922 212L1001 101Q927 43 833 10T639 -23Q486 -23 378 46T214 238T157 525Q157 685 214 809T374 1004T617 1075Q750 1075 846 1013T993 835T1045
559Q1045 532 1044 509T1041 467H333ZM619 937Q502 937 424 854T334 597H883Q880 766 809 851T619 937Z" />
<glyph unicode="f" glyph-name="f" horiz-adv-x="1200" d="M823 1498Q908 1498 977 1483T1108 1441L1054 1316Q1003 1338 946 1349T828 1360Q718 1360 663 1317T607 1185V971H964L946 839H607V0H439V839H188V971H439V1181Q439 1279 489 1350T627 1459T823 1498Z" />
<glyph unicode="g" glyph-name="g" horiz-adv-x="1200" d="M1057 1165L1109 1007Q1042 986 966 981T801 976Q892 934 938 868T984 711Q984 607 937 526T802 399T588 353Q535 353 500 358T431 373Q407 357 392 329T376 271Q376 233 406 208T517 183H707Q813 183
897 145T1030 43T1079 -103Q1079 -258 948 -341T576 -424Q408 -424 311 -390T173 -285T131 -107H283Q283 -168 307 -208T394 -267T575 -287Q691 -287 764 -268T873 -210T909 -114Q909 -39 841 -1T671 37H483Q347 37 283 97T218 235Q218 286 247 334T334 419Q243
467 200 538T157 710Q157 817 210 899T358 1029T577 1076Q710 1077 793 1087T935 1118T1057 1165ZM577 953Q450 953 390 885T329 710Q329 603 391 534T581 465Q693 465 751 530T810 711Q810 830 752 891T577 953Z" />
<glyph unicode="h" glyph-name="h" horiz-adv-x="1200" d="M369 1493V909Q431 992 521 1033T705 1075Q859 1075 930 993T1001 765V0H833V761Q833 856 789 899T651 943Q591 943 537 916T440 849T369 767V0H201V1475L369 1493Z" />
<glyph unicode="i" glyph-name="i" horiz-adv-x="1200" d="M734 1053V133H1031V0H241V133H566V920H251V1053H734ZM600 1546Q656 1546 689 1512T723 1429Q723 1378 690 1344T600 1309Q547 1309 513 1343T479 1429Q479 1478 513 1512T600 1546Z" />
<glyph unicode="j" glyph-name="j" horiz-adv-x="1200" d="M890 1053V169Q890 -7 811 -125T582 -316T219 -424L191 -294Q347 -268 467 -216T654 -74T722 158V920H284V1053H890ZM733 1546Q789 1546 823 1512T857 1429Q857 1378 823 1344T733 1309Q679 1309 646
1343T613 1429Q613 1478 646 1512T733 1546Z" />
<glyph unicode="k" glyph-name="k" horiz-adv-x="1200" d="M1083 1053L609 579L1138 0H917L399 575L865 1053H1083ZM380 1498V0H212V1477L380 1498Z" />
<glyph unicode="l" glyph-name="l" horiz-adv-x="1200" d="M611 1477V260Q611 182 659 150T785 117Q833 117 876 127T962 154L1007 31Q964 10 901 -6T757 -23Q617 -23 530 54T443 269V1344H120V1477H611Z" />
<glyph unicode="m" glyph-name="m" horiz-adv-x="1200" d="M895 1075Q946 1075 992 1053T1069 968T1099 784V0H943V757Q943 856 931 900T862 944Q815 944 769 915T678 818V0H521V757Q521 856 509 900T440 944Q391 944 346 915T256 818V0H101V1053H233L243 931Q286
992 339 1033T472 1075Q532 1075 585 1047T663 936Q706 998 760 1036T895 1075Z" />
<glyph unicode="n" glyph-name="n" horiz-adv-x="1200" d="M201 0V1053H344L357 907Q421 988 517 1031T705 1075Q860 1075 930 993T1001 765V0H833V641Q833 749 821 815T771 912T653 943Q591 943 537 916T440 849T369 767V0H201Z" />
<glyph unicode="o" glyph-name="o" horiz-adv-x="1200" d="M602 1075Q751 1075 851 1008T1002 817T1053 527Q1053 366 1001 242T849 48T600 -23Q452 -23 351 45T199 236T147 525Q147 688 199 812T352 1005T602 1075ZM602 938Q466 938 397 838T327 525Q327 317
395 216T600 115Q736 115 804 216T873 527Q873 737 805 837T602 938Z" />
<glyph unicode="p" glyph-name="p" horiz-adv-x="1200" d="M672 1075Q812 1075 895 1007T1016 816T1053 527Q1053 368 1009 244T874 48T647 -23Q474 -23 369 99V-403L201 -424V1053H344L358 906Q416 987 496 1031T672 1075ZM632 940Q545 940 479 888T369 771V249Q410
188 472 153T610 117Q741 117 807 217T873 528Q873 666 847 757T768 894T632 940Z" />
<glyph unicode="q" glyph-name="q" horiz-adv-x="1200" d="M548 1075Q643 1075 715 1040T842 938L856 1053H999V-424L831 -403V133Q774 52 698 15T535 -23Q394 -23 309 45T185 236T147 525Q147 683 192 807T328 1003T548 1075ZM590 940Q459 940 393 837T327 525Q327
389 354 298T434 162T570 117Q658 117 723 166T831 279V805Q790 869 728 904T590 940Z" />
<glyph unicode="r" glyph-name="r" horiz-adv-x="1200" d="M211 0V129H375V924H211V1053H503L534 804Q595 934 682 1005T912 1076Q956 1076 990 1070T1061 1053L1012 903Q979 912 952 916T890 921Q769 921 682 835T543 575V129H757V0H211ZM899 697V926L916 1053H1061L1037
697H899Z" />
<glyph unicode="s" glyph-name="s" horiz-adv-x="1200" d="M559 116Q680 116 750 161T821 283Q821 331 804 366T732 429T566 485Q457 512 377 547T252 640T207 788Q207 877 257 941T398 1040T607 1075Q734 1075 828 1042T989 959L915 845Q855 886 783 912T609
939Q485 939 433 901T381 801Q381 755 406 725T493 670T661 616Q764 589 840 551T960 451T1003 291Q1003 179 939 110T774 9T559 -23Q416 -23 316 18T147 119L243 230Q305 179 385 148T559 116Z" />
<glyph unicode="t" glyph-name="t" horiz-adv-x="1200" d="M1037 53Q983 17 906 -3T755 -23Q585 -23 493 66T401 295V923H159V1053H401V1292L569 1312V1053H933L913 923H569V297Q569 209 615 163T770 117Q829 117 879 131T972 167L1037 53Z" />
<glyph unicode="u" glyph-name="u" horiz-adv-x="1200" d="M369 1053V307Q369 203 412 157T546 111Q633 111 710 160T831 278V1053H999V0H856L842 142Q780 62 689 20T505 -23Q352 -23 277 58T201 287V1053H369Z" />
<glyph unicode="v" glyph-name="v" horiz-adv-x="1200" d="M1079 1053L696 0H501L121 1053H299L604 153L905 1053H1079Z" />
<glyph unicode="w" glyph-name="w" horiz-adv-x="1200" d="M981 0H743L607 773L459 0H227L35 1053H207L341 104L509 919H708L867 104L1001 1053H1165L981 0Z" />
<glyph unicode="x" glyph-name="x" horiz-adv-x="1200" d="M303 0H111L500 556L159 1053H358L602 661L849 1053H1041L701 563L1089 0H883L595 452L303 0Z" />
<glyph unicode="y" glyph-name="y" horiz-adv-x="1200" d="M1077 1053L707 -7Q670 -114 614 -203T467 -350T237 -423L211 -289Q320 -271 383 -234T482 -139T547 0H491L123 1053H303L605 128L903 1053H1077Z" />
<glyph unicode="z" glyph-name="z" horiz-adv-x="1200" d="M411 143H997L975 0H205V127L789 907H251V1053H991V923L411 143Z" />
<glyph unicode="{" glyph-name="braceleft" horiz-adv-x="1200" d="M903 1671V1539Q830 1539 771 1525T679 1475T651 1379L693 969Q702 885 683 830T620 744T506 700Q576 688 621 659T684 575T693 431L651 21Q646 -41 678 -76T770 -125T903 -139V-271Q819 -271
742 -257T606 -207T517 -112T497 41L537 421Q545 490 525 537T437 608T235 633V767Q369 767 436 791T524 862T537 977L497 1359Q487 1451 517 1511T605 1607T741 1656T903 1671Z" />
<glyph unicode="|" glyph-name="bar" horiz-adv-x="1200" d="M674 1613V-203H524V1613H674Z" />
<glyph unicode="}" glyph-name="braceright" horiz-adv-x="1200" d="M297 1671Q381 1671 458 1657T594 1607T683 1512T703 1359L663 977Q655 909 680 862T774 791T965 767V633Q843 633 775 609T681 537T663 421L703 41Q713 -51 683 -111T595 -207T459 -256T297
-271V-139Q370 -139 429 -125T522 -76T549 21L507 431Q498 520 517 574T585 658T716 698Q638 711 589 743T519 830T507 969L549 1379Q555 1440 522 1475T430 1524T297 1539V1671Z" />
<glyph unicode="~" glyph-name="asciitilde" horiz-adv-x="1200" d="M411 801Q486 801 538 771T632 701T711 631T795 601Q857 601 906 650T993 771L1113 709Q1084 652 1042 594T939 496T789 456Q719 456 668 486T575 556T493 626T405 656Q340 656 293 608T207
487L87 546Q117 605 158 664T260 762T411 801Z" />
<glyph unicode="&#xa0;" glyph-name="uni00A0" horiz-adv-x="1200" />
<glyph unicode="&#xa1;" glyph-name="exclamdown" horiz-adv-x="1200" d="M670 521L696 -395H501L525 521H670ZM598 997Q654 997 693 958T733 863Q733 808 694 769T598 729Q541 729 503 768T465 863Q465 919 503 958T598 997Z" />
<glyph unicode="&#xa2;" glyph-name="cent" horiz-adv-x="1200" d="M746 1366V1066Q810 1059 870 1035T988 964L904 852Q838 901 784 918T673 935Q542 935 468 833T394 522Q394 311 469 217T673 122Q732 122 786 141T907 211L988 92Q932 44 871 20T746 -13V-307H596V-11Q406
13 309 154T212 522Q212 666 255 782T384 972T598 1064V1366H746Z" />
<glyph unicode="&#xa3;" glyph-name="sterling" horiz-adv-x="1200" d="M693 1399Q801 1399 892 1359T1051 1227L937 1141Q887 1203 830 1230T699 1258Q592 1258 537 1197T481 1016V775H895V658H481V410Q481 328 459 258T358 143H1035L1015 0H149V136Q229 162
263 200T305 290T313 402V658H149V775H313V1031Q313 1137 358 1220T489 1351T693 1399Z" />
<glyph unicode="&#xa4;" glyph-name="currency" horiz-adv-x="1200" d="M177 1219L355 1039Q406 1071 468 1089T602 1107Q672 1107 734 1091T845 1039L1023 1217L1131 1109L957 933Q991 884 1011 821T1031 684Q1031 609 1010 546T955 431L1131 257L1023 148L843
325Q794 292 733 276T602 259Q531 259 469 275T355 325L177 147L69 255L247 433Q214 484 195 547T175 684Q175 757 194 819T245 931L69 1111L177 1219ZM602 971Q476 971 411 895T345 684Q345 549 410 473T602 397Q728 397 792 473T857 684Q857 818 793 894T602
971Z" />
<glyph unicode="&#xa5;" glyph-name="yen" horiz-adv-x="1200" d="M1121 1377L733 691H972V573H688V402H972V285H688V0H511V285H231V402H511V573H231V691H464L79 1377H269L602 744H610L943 1377H1121Z" />
<glyph unicode="&#xa6;" glyph-name="brokenbar" horiz-adv-x="1200" d="M674 1613V903H524V1613H674ZM674 507V-203H524V507H674Z" />
<glyph unicode="&#xa7;" glyph-name="section" horiz-adv-x="1200" d="M633 1399Q743 1399 822 1370T968 1292L887 1177Q828 1218 768 1240T623 1263Q538 1263 485 1224T432 1121Q432 1076 451 1045T524 987T679 925Q842 871 913 804T985 619Q985 538 938 474T825
369Q879 328 911 275T944 151Q944 61 895 -4T759 -104T559 -139Q449 -139 365 -109T215 -29L297 84Q356 42 419 20T567 -2Q652 -2 710 35T768 139Q768 185 748 215T675 273T521 333Q358 388 285 455T212 641Q212 722 260 786T374 891Q318 932 287 985T255 1107Q255
1198 306 1263T444 1364T633 1399ZM477 833Q431 795 406 750T381 662Q381 604 408 571T510 507T723 425Q769 463 794 508T819 598Q819 653 792 686T690 750T477 833Z" />
<glyph unicode="&#xa8;" glyph-name="dieresis" horiz-adv-x="1200" d="M393 1297Q345 1297 314 1327T283 1403Q283 1450 314 1480T393 1511Q438 1511 469 1481T501 1403Q501 1357 470 1327T393 1297ZM805 1297Q759 1297 728 1327T697 1403Q697 1450 728 1480T805
1511Q852 1511 883 1481T915 1403Q915 1357 884 1327T805 1297Z" />
<glyph unicode="&#xa9;" glyph-name="copyright" horiz-adv-x="1200" d="M602 1493Q774 1493 894 1410T1077 1185T1141 871Q1141 699 1078 558T894 333T602 249Q430 249 309 332T123 557T59 871Q59 1043 123 1184T308 1409T602 1493ZM609 1251Q686 1251 738 1232T843
1173L772 1077Q733 1109 694 1123T615 1137Q536 1137 482 1076T427 873Q427 740 479 677T615 614Q669 614 710 633T787 684L853 587Q811 551 753 523T611 494Q469 494 377 591T284 873Q284 997 329 1081T448 1208T609 1251ZM602 1393Q457 1393 362 1323T219 1135T171
871Q171 727 218 609T361 421T602 351Q746 351 841 420T984 608T1031 871Q1031 1016 984 1134T841 1323T602 1393Z" />
<glyph unicode="&#xaa;" glyph-name="ordfeminine" horiz-adv-x="1200" d="M580 1498Q748 1498 830 1424T913 1219V823Q913 778 929 756T979 723L941 614Q879 622 839 649T776 733Q727 676 656 646T508 615Q371 615 288 687T204 879Q204 1013 319 1083T638 1153H755V1213Q755
1297 703 1333T557 1369Q516 1369 452 1358T315 1321L269 1438Q357 1472 434 1485T580 1498ZM997 151V0H211V151H997ZM755 1041H639Q499 1041 436 1001T373 887Q373 811 418 772T545 733Q605 733 661 763T755 845V1041Z" />
<glyph unicode="&#xab;" glyph-name="guillemotleft" horiz-adv-x="1200" d="M617 175L516 110L165 525V647L516 1065L617 1000L347 587L617 175ZM1033 175L932 110L579 525V647L932 1065L1033 1000L763 587L1033 175Z" />
<glyph unicode="&#xac;" glyph-name="logicalnot" horiz-adv-x="1200" d="M969 695V269H815V552H231V695H969Z" />
<glyph unicode="&#xad;" glyph-name="uni00AD" horiz-adv-x="1200" d="M288 553V699H912V553H288Z" />
<glyph unicode="&#xae;" glyph-name="registered" horiz-adv-x="1200" d="M600 1493Q740 1493 855 1424T1037 1240T1105 983Q1105 843 1038 729T855 546T600 478Q460 478 345 546T161 728T93 983Q93 1124 161 1239T344 1424T600 1493ZM600 1399Q485 1399 394 1343T250
1193T197 983Q197 869 249 776T393 627T600 571Q715 571 805 626T948 775T1001 983Q1001 1098 949 1192T806 1343T600 1399ZM571 1272Q817 1272 817 1103Q817 1039 779 1000T683 945L855 709H723L571 926H515V709H401V1272H571ZM574 1185H515V1013H578Q636 1013
668 1033T700 1103Q700 1185 574 1185Z" />
<glyph unicode="&#xaf;" glyph-name="overscore" horiz-adv-x="1200" d="M868 1352H330V1480H868V1352Z" />
<glyph unicode="&#xb0;" glyph-name="degree" horiz-adv-x="1200" d="M455 1498Q539 1498 613 1462T733 1355T780 1185Q780 1085 734 1015T613 908T455 871Q373 871 299 908T178 1015T131 1187Q131 1286 178 1355T299 1461T455 1498ZM455 1379Q387 1379 332 1333T277
1187Q277 1087 332 1039T455 991Q525 991 579 1038T633 1185Q633 1283 579 1331T455 1379Z" />
<glyph unicode="&#xb1;" glyph-name="plusminus" horiz-adv-x="1200" d="M681 1075V777H969V636H681V325H519V636H231V777H519V1075H681ZM969 146V0H231V146H969Z" />
<glyph unicode="&#xb2;" glyph-name="uni00B2" horiz-adv-x="1200" d="M871 1071Q871 1008 839 959T733 862T533 751H890L873 630H319V735Q478 832 564 888T684 983T717 1066Q717 1111 687 1137T599 1163Q551 1163 503 1142T409 1066L308 1143Q430 1284 604 1284Q733
1284 802 1225T871 1071Z" />
<glyph unicode="&#xb3;" glyph-name="uni00B3" horiz-adv-x="1200" d="M617 1284Q739 1284 808 1236T877 1106Q877 1053 845 1020T734 973Q820 960 862 927T904 821Q904 731 824 675T597 618Q517 618 437 645T295 735L387 811Q433 770 489 751T602 731Q679 731
716 757T753 825Q753 875 718 897T611 919H518L533 1003H601Q662 1003 695 1021T729 1085Q729 1173 607 1173Q552 1173 500 1155T397 1097L319 1180Q388 1237 463 1260T617 1284Z" />
<glyph unicode="&#xb4;" glyph-name="acute" horiz-adv-x="1200" d="M767 1594L845 1450L427 1280L375 1370L767 1594Z" />
<glyph unicode="&#xb5;" glyph-name="uni00B5" horiz-adv-x="1200" d="M967 1053V335Q967 232 985 147T1023 0L864 -23Q848 3 835 55T816 146Q769 69 691 23T534 -23Q454 -23 410 -1T327 77Q334 24 339 -20T345 -97V-403L177 -424V1053H345V463Q345 358 356 282T405
166T522 125Q617 125 685 173T799 285V1053H967Z" />
<glyph unicode="&#xb6;" glyph-name="paragraph" horiz-adv-x="1200" d="M1113 1377V-402L959 -424V1237H734V-402L580 -424V577Q416 578 306 631T140 775T85 974Q85 1086 142 1177T313 1323T593 1377H1113Z" />
<glyph unicode="&#xb7;" glyph-name="middot" horiz-adv-x="1200" d="M423 684Q423 733 446 772T508 835T598 859Q649 859 689 836T752 773T775 684Q775 635 752 595T689 531T598 507Q548 507 509 530T446 594T423 684Z" />
<glyph unicode="&#xb8;" glyph-name="cedilla" horiz-adv-x="1200" d="M681 -281Q681 -227 635 -211T507 -195L525 32H640V-114Q739 -122 782 -171T825 -281Q825 -347 791 -390T702 -455T581 -477Q521 -477 466 -464T372 -428L426 -331Q454 -346 491 -354T561
-363Q614 -363 647 -345T681 -281Z" />
<glyph unicode="&#xb9;" glyph-name="uni00B9" horiz-adv-x="1200" d="M661 630V1108L469 1003L399 1103L688 1272H801V630H661Z" />
<glyph unicode="&#xba;" glyph-name="ordmasculine" horiz-adv-x="1200" d="M600 1498Q725 1498 816 1444T956 1291T1006 1057Q1006 927 956 827T815 671T600 615Q475 615 384 670T242 824T192 1057Q192 1188 242 1287T385 1442T600 1498ZM994 151V0H209V151H994ZM600
1369Q490 1369 425 1294T360 1057Q360 896 425 820T600 743Q710 743 774 819T838 1057Q838 1218 774 1293T600 1369Z" />
<glyph unicode="&#xbb;" glyph-name="guillemotright" horiz-adv-x="1200" d="M849 587L579 1000L680 1065L1033 647V525L680 110L579 175L849 587ZM435 587L165 1000L266 1065L617 647V525L266 110L165 175L435 587Z" />
<glyph unicode="&#xbc;" glyph-name="onequarter" horiz-adv-x="1200" d="M260 736V1214L68 1109L-2 1209L287 1378H400V736H260ZM90 368L28 475L1098 987L1158 880L90 368ZM1092 112V0H947V112H590V208L860 662L984 611L754 231H946L958 402H1092V231H1202V112H1092Z" />
<glyph unicode="&#xbd;" glyph-name="onehalf" horiz-adv-x="1200" d="M254 736V1214L62 1109L-8 1209L281 1378H394V736H254ZM82 368L20 475L1090 987L1150 880L82 368ZM1190 441Q1190 378 1158 329T1052 232T852 121H1209L1192 0H638V105Q797 202 883 258T1003
353T1036 436Q1036 481 1006 507T918 533Q870 533 822 512T728 436L627 513Q749 654 923 654Q1052 654 1121 595T1190 441Z" />
<glyph unicode="&#xbe;" glyph-name="threequarters" horiz-adv-x="1200" d="M317 1390Q439 1390 508 1342T577 1212Q577 1159 545 1126T434 1079Q520 1066 562 1033T604 927Q604 837 524 781T297 724Q217 724 137 751T-5 841L87 917Q133 876 189 857T302 837Q379
837 416 863T453 931Q453 981 418 1003T311 1025H218L233 1109H301Q362 1109 395 1127T429 1191Q429 1279 307 1279Q252 1279 200 1261T97 1203L19 1286Q88 1343 163 1366T317 1390ZM109 368L47 475L1117 987L1177 880L109 368ZM1095 112V0H950V112H593V208L863
662L987 611L757 231H949L961 402H1095V231H1205V112H1095Z" />
<glyph unicode="&#xbf;" glyph-name="questiondown" horiz-adv-x="1200" d="M647 997Q704 997 743 958T783 863Q783 808 744 769T647 729Q591 729 553 768T515 863Q515 919 553 958T647 997ZM739 521V438Q739 341 704 278T615 169T509 85T421 2T385 -109Q385 -195
452 -241T621 -287Q692 -287 767 -253T904 -142L1024 -230Q937 -332 831 -380T604 -428Q482 -428 394 -384T258 -269T210 -119Q210 -23 246 37T336 139T444 221T534 314T570 451V521H739Z" />
<glyph unicode="&#xc0;" glyph-name="Agrave" horiz-adv-x="1200" d="M867 351H322L212 0H41L489 1377H711L1159 0H977L867 351ZM367 495H822L596 1231L367 495ZM462 1819L831 1601L780 1511L368 1675L462 1819Z" />
<glyph unicode="&#xc1;" glyph-name="Aacute" horiz-adv-x="1200" d="M867 351H322L212 0H41L489 1377H711L1159 0H977L867 351ZM367 495H822L596 1231L367 495ZM764 1812L840 1668L413 1511L368 1601L764 1812Z" />
<glyph unicode="&#xc2;" glyph-name="Acircumflex" horiz-adv-x="1200" d="M867 351H322L212 0H41L489 1377H711L1159 0H977L867 351ZM367 495H822L596 1231L367 495ZM658 1821L927 1606L853 1521L600 1681L349 1521L274 1606L545 1821H658Z" />
<glyph unicode="&#xc3;" glyph-name="Atilde" horiz-adv-x="1200" d="M867 351H322L212 0H41L489 1377H711L1159 0H977L867 351ZM367 495H822L596 1231L367 495ZM717 1556Q664 1556 626 1580T554 1628T484 1653Q450 1653 426 1630T378 1560L271 1614Q306 1685
359 1733T485 1782Q541 1782 578 1758T648 1710T717 1686Q747 1686 771 1707T823 1774L929 1720Q890 1637 836 1597T717 1556Z" />
<glyph unicode="&#xc4;" glyph-name="Adieresis" horiz-adv-x="1200" d="M867 351H322L212 0H41L489 1377H711L1159 0H977L867 351ZM367 495H822L596 1231L367 495ZM393 1536Q345 1536 314 1566T283 1642Q283 1689 314 1719T393 1750Q438 1750 469 1720T501 1642Q501
1596 470 1566T393 1536ZM805 1536Q759 1536 728 1566T697 1642Q697 1689 728 1719T805 1750Q852 1750 883 1720T915 1642Q915 1596 884 1566T805 1536Z" />
<glyph unicode="&#xc5;" glyph-name="Aring" horiz-adv-x="1200" d="M867 351H322L212 0H41L489 1377H711L1159 0H977L867 351ZM367 495H822L596 1231L367 495ZM600 1886Q697 1886 759 1827T822 1680Q822 1624 794 1578T715 1504T600 1477Q536 1477 486 1504T407
1577T378 1680Q378 1767 440 1826T600 1886ZM600 1794Q551 1794 522 1764T492 1680Q492 1628 521 1598T600 1567Q651 1567 679 1597T708 1680Q708 1733 680 1763T600 1794Z" />
<glyph unicode="&#xc6;" glyph-name="AE" horiz-adv-x="1200" d="M659 351H252L153 0H-24L380 1377H1132L1111 1236H640L742 769H1114V628H769L872 141H1215V0H732L659 351ZM297 497H628L481 1240L297 497Z" />
<glyph unicode="&#xc7;" glyph-name="Ccedilla" horiz-adv-x="1200" d="M716 1399Q851 1399 942 1365T1115 1265L1018 1152Q953 1207 881 1230T729 1254Q616 1254 520 1201T366 1024T307 689Q307 484 362 360T513 181T725 126Q841 126 915 161T1045 241L1135 127Q1072
66 971 22T723 -23Q556 -23 421 59T206 299T127 689Q127 921 207 1079T422 1318T716 1399ZM780 -281Q780 -227 734 -211T606 -195L624 32H739V-114Q838 -122 881 -171T924 -281Q924 -347 890 -390T801 -455T680 -477Q620 -477 565 -464T471 -428L525 -331Q553 -346
590 -354T660 -363Q713 -363 746 -345T780 -281Z" />
<glyph unicode="&#xc8;" glyph-name="Egrave" horiz-adv-x="1200" d="M425 1235V771H935V628H425V139H1051V0H251V1377H1033L1013 1235H425ZM504 1819L873 1601L822 1511L410 1675L504 1819Z" />
<glyph unicode="&#xc9;" glyph-name="Eacute" horiz-adv-x="1200" d="M425 1235V771H935V628H425V139H1051V0H251V1377H1033L1013 1235H425ZM807 1812L883 1668L456 1511L411 1601L807 1812Z" />
<glyph unicode="&#xca;" glyph-name="Ecircumflex" horiz-adv-x="1200" d="M425 1235V771H935V628H425V139H1051V0H251V1377H1033L1013 1235H425ZM700 1821L969 1606L895 1521L642 1681L391 1521L316 1606L587 1821H700Z" />
<glyph unicode="&#xcb;" glyph-name="Edieresis" horiz-adv-x="1200" d="M425 1235V771H935V628H425V139H1051V0H251V1377H1033L1013 1235H425ZM435 1536Q387 1536 356 1566T325 1642Q325 1689 356 1719T435 1750Q480 1750 511 1720T543 1642Q543 1596 512 1566T435
1536ZM847 1536Q801 1536 770 1566T739 1642Q739 1689 770 1719T847 1750Q894 1750 925 1720T957 1642Q957 1596 926 1566T847 1536Z" />
<glyph unicode="&#xcc;" glyph-name="Igrave" horiz-adv-x="1200" d="M994 1377V1238H688V139H994V0H206V139H512V1238H206V1377H994ZM462 1819L831 1601L780 1511L368 1675L462 1819Z" />
<glyph unicode="&#xcd;" glyph-name="Iacute" horiz-adv-x="1200" d="M994 1377V1238H688V139H994V0H206V139H512V1238H206V1377H994ZM764 1812L840 1668L413 1511L368 1601L764 1812Z" />
<glyph unicode="&#xce;" glyph-name="Icircumflex" horiz-adv-x="1200" d="M994 1377V1238H688V139H994V0H206V139H512V1238H206V1377H994ZM658 1821L927 1606L853 1521L600 1681L349 1521L274 1606L545 1821H658Z" />
<glyph unicode="&#xcf;" glyph-name="Idieresis" horiz-adv-x="1200" d="M994 1377V1238H688V139H994V0H206V139H512V1238H206V1377H994ZM393 1536Q345 1536 314 1566T283 1642Q283 1689 314 1719T393 1750Q438 1750 469 1720T501 1642Q501 1596 470 1566T393
1536ZM805 1536Q759 1536 728 1566T697 1642Q697 1689 728 1719T805 1750Q852 1750 883 1720T915 1642Q915 1596 884 1566T805 1536Z" />
<glyph unicode="&#xd0;" glyph-name="Eth" horiz-adv-x="1200" d="M675 773V639H41V773H675ZM939 695Q939 875 901 983T801 1145T666 1217T521 1235H359V139H523Q598 139 671 162T805 246T902 415T939 695ZM1124 695Q1124 479 1068 343T920 132T719 29T502 0H186V1377H480Q601
1377 715 1350T922 1251T1069 1044T1124 695Z" />
<glyph unicode="&#xd1;" glyph-name="Ntilde" horiz-adv-x="1200" d="M790 0L305 1211Q306 1188 309 1135T317 1008T325 852T328 690V0H167V1377H402L895 161Q894 190 888 267T877 455T872 688V1377H1033V0H790ZM970 1556Q917 1556 879 1580T807 1628T737 1653Q703
1653 679 1630T631 1560L524 1614Q559 1685 612 1733T738 1782Q794 1782 831 1758T901 1710T970 1686Q1000 1686 1024 1707T1076 1774L1182 1720Q1143 1637 1089 1597T970 1556Z" />
<glyph unicode="&#xd2;" glyph-name="Ograve" horiz-adv-x="1200" d="M1107 687Q1107 479 1051 319T881 68T600 -23Q433 -23 320 65T150 313T93 685Q93 894 149 1055T319 1307T600 1399Q768 1399 881 1310T1050 1061T1107 687ZM925 687Q925 962 850 1108T600 1254Q426
1254 351 1107T275 685Q275 410 353 267T600 123Q774 123 849 267T925 687ZM462 1819L831 1601L780 1511L368 1675L462 1819Z" />
<glyph unicode="&#xd3;" glyph-name="Oacute" horiz-adv-x="1200" d="M1107 687Q1107 479 1051 319T881 68T600 -23Q433 -23 320 65T150 313T93 685Q93 894 149 1055T319 1307T600 1399Q768 1399 881 1310T1050 1061T1107 687ZM925 687Q925 962 850 1108T600 1254Q426
1254 351 1107T275 685Q275 410 353 267T600 123Q774 123 849 267T925 687ZM764 1812L840 1668L413 1511L368 1601L764 1812Z" />
<glyph unicode="&#xd4;" glyph-name="Ocircumflex" horiz-adv-x="1200" d="M1107 687Q1107 479 1051 319T881 68T600 -23Q433 -23 320 65T150 313T93 685Q93 894 149 1055T319 1307T600 1399Q768 1399 881 1310T1050 1061T1107 687ZM925 687Q925 962 850 1108T600
1254Q426 1254 351 1107T275 685Q275 410 353 267T600 123Q774 123 849 267T925 687ZM658 1821L927 1606L853 1521L600 1681L349 1521L274 1606L545 1821H658Z" />
<glyph unicode="&#xd5;" glyph-name="Otilde" horiz-adv-x="1200" d="M1107 687Q1107 479 1051 319T881 68T600 -23Q433 -23 320 65T150 313T93 685Q93 894 149 1055T319 1307T600 1399Q768 1399 881 1310T1050 1061T1107 687ZM925 687Q925 962 850 1108T600 1254Q426
1254 351 1107T275 685Q275 410 353 267T600 123Q774 123 849 267T925 687ZM717 1556Q664 1556 626 1580T554 1628T484 1653Q450 1653 426 1630T378 1560L271 1614Q306 1685 359 1733T485 1782Q541 1782 578 1758T648 1710T717 1686Q747 1686 771 1707T823 1774L929
1720Q890 1637 836 1597T717 1556Z" />
<glyph unicode="&#xd6;" glyph-name="Odieresis" horiz-adv-x="1200" d="M1107 687Q1107 479 1051 319T881 68T600 -23Q433 -23 320 65T150 313T93 685Q93 894 149 1055T319 1307T600 1399Q768 1399 881 1310T1050 1061T1107 687ZM925 687Q925 962 850 1108T600
1254Q426 1254 351 1107T275 685Q275 410 353 267T600 123Q774 123 849 267T925 687ZM393 1536Q345 1536 314 1566T283 1642Q283 1689 314 1719T393 1750Q438 1750 469 1720T501 1642Q501 1596 470 1566T393 1536ZM805 1536Q759 1536 728 1566T697 1642Q697 1689
728 1719T805 1750Q852 1750 883 1720T915 1642Q915 1596 884 1566T805 1536Z" />
<glyph unicode="&#xd7;" glyph-name="multiply" horiz-adv-x="1200" d="M845 967L950 859L705 614L950 369L845 264L600 509L355 264L250 369L495 614L250 859L355 967L600 719L845 967Z" />
<glyph unicode="&#xd8;" glyph-name="Oslash" horiz-adv-x="1200" d="M600 1399Q767 1399 879 1310T1049 1061T1107 687Q1107 479 1051 319T881 68T600 -23Q433 -23 321 65T151 313T93 685Q93 894 149 1055T319 1307T600 1399ZM793 1606L944 1567L865 1313L816
1223L493 103L479 10L409 -220L259 -181L338 70L387 167L705 1267L727 1377L793 1606ZM600 1253Q427 1253 352 1106T276 685Q276 480 310 357T416 179T600 124Q774 124 849 268T924 687Q924 893 891 1017T787 1197T600 1253Z" />
<glyph unicode="&#xd9;" glyph-name="Ugrave" horiz-adv-x="1200" d="M1055 1377V446Q1055 307 999 201T840 36T598 -23Q456 -23 355 36T199 202T145 446V1377H317V440Q317 283 390 205T598 127Q733 127 806 205T880 440V1377H1055ZM462 1819L831 1601L780 1511L368
1675L462 1819Z" />
<glyph unicode="&#xda;" glyph-name="Uacute" horiz-adv-x="1200" d="M1055 1377V446Q1055 307 999 201T840 36T598 -23Q456 -23 355 36T199 202T145 446V1377H317V440Q317 283 390 205T598 127Q733 127 806 205T880 440V1377H1055ZM764 1812L840 1668L413 1511L368
1601L764 1812Z" />
<glyph unicode="&#xdb;" glyph-name="Ucircumflex" horiz-adv-x="1200" d="M1055 1377V446Q1055 307 999 201T840 36T598 -23Q456 -23 355 36T199 202T145 446V1377H317V440Q317 283 390 205T598 127Q733 127 806 205T880 440V1377H1055ZM658 1821L927 1606L853
1521L600 1681L349 1521L274 1606L545 1821H658Z" />
<glyph unicode="&#xdc;" glyph-name="Udieresis" horiz-adv-x="1200" d="M1055 1377V446Q1055 307 999 201T840 36T598 -23Q456 -23 355 36T199 202T145 446V1377H317V440Q317 283 390 205T598 127Q733 127 806 205T880 440V1377H1055ZM393 1536Q345 1536 314
1566T283 1642Q283 1689 314 1719T393 1750Q438 1750 469 1720T501 1642Q501 1596 470 1566T393 1536ZM805 1536Q759 1536 728 1566T697 1642Q697 1689 728 1719T805 1750Q852 1750 883 1720T915 1642Q915 1596 884 1566T805 1536Z" />
<glyph unicode="&#xdd;" glyph-name="Yacute" horiz-adv-x="1200" d="M688 531V0H512V529L47 1377H239L604 687L973 1377H1153L688 531ZM771 1812L847 1668L420 1511L375 1601L771 1812Z" />
<glyph unicode="&#xde;" glyph-name="Thorn" horiz-adv-x="1200" d="M387 1377V1144H585Q834 1144 972 1039T1111 710Q1111 550 1044 450T858 304T584 257H387V0H215V1377H387ZM606 1007H387V396H607Q702 396 774 423T888 518T929 706Q929 867 840 937T606 1007Z" />
<glyph unicode="&#xdf;" glyph-name="germandbls" horiz-adv-x="1200" d="M593 1498Q747 1498 844 1418T941 1211Q941 1152 918 1110T861 1037T794 979T737 924T714 857Q714 805 754 768T854 695T974 614T1075 502T1116 334Q1116 218 1065 139T928 18T743 -23Q664
-23 601 -6T485 46L553 161Q590 140 636 127T727 113Q828 113 886 165T945 325Q945 389 916 434T842 513T747 578T651 644T577 725T548 837Q548 895 571 934T630 1003T699 1059T757 1118T781 1194Q781 1231 764 1270T706 1336T592 1363Q480 1363 420 1298T360 1078V0H192V1067Q192
1279 299 1388T593 1498Z" />
<glyph unicode="&#xe0;" glyph-name="agrave" horiz-adv-x="1200" d="M955 230Q955 167 976 138T1041 95L1000 -23Q932 -14 881 20T807 125Q750 52 665 15T477 -23Q319 -23 228 66T137 302Q137 465 264 552T631 639H786V727Q786 841 720 888T535 936Q483 936 413
924T261 882L217 1009Q314 1045 399 1060T561 1075Q758 1075 856 984T955 735V230ZM520 105Q598 105 669 144T786 254V525H634Q460 525 389 465T317 304Q317 206 367 156T520 105ZM1013 1244L609 1430L699 1573L1068 1337L1013 1244Z" />
<glyph unicode="&#xe1;" glyph-name="aacute" horiz-adv-x="1200" d="M955 230Q955 167 976 138T1041 95L1000 -23Q932 -14 881 20T807 125Q750 52 665 15T477 -23Q319 -23 228 66T137 302Q137 465 264 552T631 639H786V727Q786 841 720 888T535 936Q483 936 413
924T261 882L217 1009Q314 1045 399 1060T561 1075Q758 1075 856 984T955 735V230ZM520 105Q598 105 669 144T786 254V525H634Q460 525 389 465T317 304Q317 206 367 156T520 105ZM1007 1594L1085 1450L667 1280L615 1370L1007 1594Z" />
<glyph unicode="&#xe2;" glyph-name="acircumflex" horiz-adv-x="1200" d="M955 230Q955 167 976 138T1041 95L1000 -23Q932 -14 881 20T807 125Q750 52 665 15T477 -23Q319 -23 228 66T137 302Q137 465 264 552T631 639H786V727Q786 841 720 888T535 936Q483
936 413 924T261 882L217 1009Q314 1045 399 1060T561 1075Q758 1075 856 984T955 735V230ZM520 105Q598 105 669 144T786 254V525H634Q460 525 389 465T317 304Q317 206 367 156T520 105ZM594 1258L514 1341L785 1579H898L1167 1341L1091 1258L842 1439L594 1258Z"
/>
<glyph unicode="&#xe3;" glyph-name="atilde" horiz-adv-x="1200" d="M955 230Q955 167 976 138T1041 95L1000 -23Q932 -14 881 20T807 125Q750 52 665 15T477 -23Q319 -23 228 66T137 302Q137 465 264 552T631 639H786V727Q786 841 720 888T535 936Q483 936 413
924T261 882L217 1009Q314 1045 399 1060T561 1075Q758 1075 856 984T955 735V230ZM520 105Q598 105 669 144T786 254V525H634Q460 525 389 465T317 304Q317 206 367 156T520 105ZM957 1317Q904 1317 866 1341T794 1389T724 1414Q690 1414 666 1391T618 1321L511
1375Q546 1446 599 1494T725 1543Q781 1543 818 1519T888 1471T957 1447Q987 1447 1011 1468T1063 1535L1169 1481Q1130 1398 1076 1358T957 1317Z" />
<glyph unicode="&#xe4;" glyph-name="adieresis" horiz-adv-x="1200" d="M955 230Q955 167 976 138T1041 95L1000 -23Q932 -14 881 20T807 125Q750 52 665 15T477 -23Q319 -23 228 66T137 302Q137 465 264 552T631 639H786V727Q786 841 720 888T535 936Q483 936
413 924T261 882L217 1009Q314 1045 399 1060T561 1075Q758 1075 856 984T955 735V230ZM520 105Q598 105 669 144T786 254V525H634Q460 525 389 465T317 304Q317 206 367 156T520 105ZM633 1297Q585 1297 554 1327T523 1403Q523 1450 554 1480T633 1511Q678 1511
709 1481T741 1403Q741 1357 710 1327T633 1297ZM1045 1297Q999 1297 968 1327T937 1403Q937 1450 968 1480T1045 1511Q1092 1511 1123 1481T1155 1403Q1155 1357 1124 1327T1045 1297Z" />
<glyph unicode="&#xe5;" glyph-name="aring" horiz-adv-x="1200" d="M955 230Q955 167 976 138T1041 95L1000 -23Q932 -14 881 20T807 125Q750 52 665 15T477 -23Q319 -23 228 66T137 302Q137 465 264 552T631 639H786V727Q786 841 720 888T535 936Q483 936 413
924T261 882L217 1009Q314 1045 399 1060T561 1075Q758 1075 856 984T955 735V230ZM520 105Q598 105 669 144T786 254V525H634Q460 525 389 465T317 304Q317 206 367 156T520 105ZM840 1647Q937 1647 999 1588T1062 1441Q1062 1385 1034 1339T955 1265T840 1238Q776
1238 726 1265T647 1338T618 1441Q618 1528 680 1587T840 1647ZM840 1555Q791 1555 762 1525T732 1441Q732 1389 761 1359T840 1328Q891 1328 919 1358T948 1441Q948 1494 920 1524T840 1555Z" />
<glyph unicode="&#xe6;" glyph-name="ae" horiz-adv-x="1200" d="M869 1075Q1049 1075 1131 937T1213 559Q1213 504 1209 465H671Q685 286 738 202T897 118Q956 118 1000 138T1095 197L1173 82Q1113 35 1047 6T895 -23Q789 -23 716 24T587 169Q524 64 459 21T293
-23Q154 -23 71 66T-12 302Q-12 466 97 553T417 641H507V727Q507 838 460 886T325 935Q272 935 227 923T117 881L71 1008Q138 1039 207 1057T341 1075Q456 1075 517 1028T607 900Q638 981 704 1028T869 1075ZM507 525H423Q279 525 224 467T169 311Q169 211 209
159T317 107Q384 107 433 154T532 294Q521 347 514 405T507 525ZM864 936Q775 936 730 861T671 597H1049Q1046 763 1007 849T864 936Z" />
<glyph unicode="&#xe7;" glyph-name="ccedilla" horiz-adv-x="1200" d="M677 122Q756 122 824 148T951 214L1033 104Q964 45 867 11T677 -23Q520 -23 410 44T241 234T183 522Q183 680 241 805T410 1003T679 1075Q780 1075 868 1045T1031 953L949 841Q882 888 815
911T677 935Q541 935 453 833T365 522Q365 382 405 294T516 164T677 122ZM759 -281Q759 -227 713 -211T585 -195L603 32H718V-114Q817 -122 860 -171T903 -281Q903 -347 869 -390T780 -455T659 -477Q599 -477 544 -464T450 -428L504 -331Q532 -346 569 -354T639
-363Q692 -363 725 -345T759 -281Z" />
<glyph unicode="&#xe8;" glyph-name="egrave" horiz-adv-x="1200" d="M333 467Q338 345 380 268T491 154T641 117Q722 117 787 141T922 212L1001 101Q927 43 833 10T639 -23Q486 -23 378 46T214 238T157 525Q157 685 214 809T374 1004T617 1075Q750 1075 846 1013T993
835T1045 559Q1045 532 1044 509T1041 467H333ZM619 937Q502 937 424 854T334 597H883Q880 766 809 851T619 937ZM794 1244L390 1430L480 1573L849 1337L794 1244Z" />
<glyph unicode="&#xe9;" glyph-name="eacute" horiz-adv-x="1200" d="M333 467Q338 345 380 268T491 154T641 117Q722 117 787 141T922 212L1001 101Q927 43 833 10T639 -23Q486 -23 378 46T214 238T157 525Q157 685 214 809T374 1004T617 1075Q750 1075 846 1013T993
835T1045 559Q1045 532 1044 509T1041 467H333ZM619 937Q502 937 424 854T334 597H883Q880 766 809 851T619 937ZM788 1594L866 1450L448 1280L396 1370L788 1594Z" />
<glyph unicode="&#xea;" glyph-name="ecircumflex" horiz-adv-x="1200" d="M333 467Q338 345 380 268T491 154T641 117Q722 117 787 141T922 212L1001 101Q927 43 833 10T639 -23Q486 -23 378 46T214 238T157 525Q157 685 214 809T374 1004T617 1075Q750 1075
846 1013T993 835T1045 559Q1045 532 1044 509T1041 467H333ZM619 937Q502 937 424 854T334 597H883Q880 766 809 851T619 937ZM375 1258L295 1341L566 1579H679L948 1341L872 1258L623 1439L375 1258Z" />
<glyph unicode="&#xeb;" glyph-name="edieresis" horiz-adv-x="1200" d="M333 467Q338 345 380 268T491 154T641 117Q722 117 787 141T922 212L1001 101Q927 43 833 10T639 -23Q486 -23 378 46T214 238T157 525Q157 685 214 809T374 1004T617 1075Q750 1075 846
1013T993 835T1045 559Q1045 532 1044 509T1041 467H333ZM619 937Q502 937 424 854T334 597H883Q880 766 809 851T619 937ZM414 1297Q366 1297 335 1327T304 1403Q304 1450 335 1480T414 1511Q459 1511 490 1481T522 1403Q522 1357 491 1327T414 1297ZM826 1297Q780
1297 749 1327T718 1403Q718 1450 749 1480T826 1511Q873 1511 904 1481T936 1403Q936 1357 905 1327T826 1297Z" />
<glyph unicode="&#xec;" glyph-name="igrave" horiz-adv-x="1200" d="M734 1053V133H1031V0H241V133H566V920H251V1053H734ZM776 1244L372 1430L462 1573L831 1337L776 1244Z" />
<glyph unicode="&#xed;" glyph-name="iacute" horiz-adv-x="1200" d="M734 1053V133H1031V0H241V133H566V920H251V1053H734ZM770 1594L848 1450L430 1280L378 1370L770 1594Z" />
<glyph unicode="&#xee;" glyph-name="icircumflex" horiz-adv-x="1200" d="M734 1053V133H1031V0H241V133H566V920H251V1053H734ZM357 1258L277 1341L548 1579H661L930 1341L854 1258L605 1439L357 1258Z" />
<glyph unicode="&#xef;" glyph-name="idieresis" horiz-adv-x="1200" d="M734 1053V133H1031V0H241V133H566V920H251V1053H734ZM396 1297Q348 1297 317 1327T286 1403Q286 1450 317 1480T396 1511Q441 1511 472 1481T504 1403Q504 1357 473 1327T396 1297ZM808
1297Q762 1297 731 1327T700 1403Q700 1450 731 1480T808 1511Q855 1511 886 1481T918 1403Q918 1357 887 1327T808 1297Z" />
<glyph unicode="&#xf0;" glyph-name="eth" horiz-adv-x="1200" d="M339 1124L501 1293Q451 1317 394 1334T267 1366L304 1498Q392 1479 467 1456T603 1399L742 1547L843 1459L719 1331Q897 1208 981 1011T1065 527Q1065 359 1006 235T841 44T590 -23Q464 -23 361
34T196 202T134 470Q134 618 192 728T348 900T559 962Q661 962 739 926T875 824Q847 951 779 1053T615 1225L459 1063L339 1124ZM895 535Q895 570 894 602T889 665Q838 744 758 785T581 827Q509 827 446 790T344 677T305 479Q305 300 384 207T587 113Q728 113 811
220T895 535Z" />
<glyph unicode="&#xf1;" glyph-name="ntilde" horiz-adv-x="1200" d="M201 0V1053H344L357 907Q421 988 517 1031T705 1075Q860 1075 930 993T1001 765V0H833V641Q833 749 821 815T771 912T653 943Q591 943 537 916T440 849T369 767V0H201ZM717 1317Q664 1317
626 1341T554 1389T484 1414Q450 1414 426 1391T378 1321L271 1375Q306 1446 359 1494T485 1543Q541 1543 578 1519T648 1471T717 1447Q747 1447 771 1468T823 1535L929 1481Q890 1398 836 1358T717 1317Z" />
<glyph unicode="&#xf2;" glyph-name="ograve" horiz-adv-x="1200" d="M602 1075Q751 1075 851 1008T1002 817T1053 527Q1053 366 1001 242T849 48T600 -23Q452 -23 351 45T199 236T147 525Q147 688 199 812T352 1005T602 1075ZM602 938Q466 938 397 838T327 525Q327
317 395 216T600 115Q736 115 804 216T873 527Q873 737 805 837T602 938ZM773 1244L369 1430L459 1573L828 1337L773 1244Z" />
<glyph unicode="&#xf3;" glyph-name="oacute" horiz-adv-x="1200" d="M602 1075Q751 1075 851 1008T1002 817T1053 527Q1053 366 1001 242T849 48T600 -23Q452 -23 351 45T199 236T147 525Q147 688 199 812T352 1005T602 1075ZM602 938Q466 938 397 838T327 525Q327
317 395 216T600 115Q736 115 804 216T873 527Q873 737 805 837T602 938ZM767 1594L845 1450L427 1280L375 1370L767 1594Z" />
<glyph unicode="&#xf4;" glyph-name="ocircumflex" horiz-adv-x="1200" d="M602 1075Q751 1075 851 1008T1002 817T1053 527Q1053 366 1001 242T849 48T600 -23Q452 -23 351 45T199 236T147 525Q147 688 199 812T352 1005T602 1075ZM602 938Q466 938 397 838T327
525Q327 317 395 216T600 115Q736 115 804 216T873 527Q873 737 805 837T602 938ZM354 1258L274 1341L545 1579H658L927 1341L851 1258L602 1439L354 1258Z" />
<glyph unicode="&#xf5;" glyph-name="otilde" horiz-adv-x="1200" d="M602 1075Q751 1075 851 1008T1002 817T1053 527Q1053 366 1001 242T849 48T600 -23Q452 -23 351 45T199 236T147 525Q147 688 199 812T352 1005T602 1075ZM602 938Q466 938 397 838T327 525Q327
317 395 216T600 115Q736 115 804 216T873 527Q873 737 805 837T602 938ZM717 1317Q664 1317 626 1341T554 1389T484 1414Q450 1414 426 1391T378 1321L271 1375Q306 1446 359 1494T485 1543Q541 1543 578 1519T648 1471T717 1447Q747 1447 771 1468T823 1535L929
1481Q890 1398 836 1358T717 1317Z" />
<glyph unicode="&#xf6;" glyph-name="odieresis" horiz-adv-x="1200" d="M602 1075Q751 1075 851 1008T1002 817T1053 527Q1053 366 1001 242T849 48T600 -23Q452 -23 351 45T199 236T147 525Q147 688 199 812T352 1005T602 1075ZM602 938Q466 938 397 838T327
525Q327 317 395 216T600 115Q736 115 804 216T873 527Q873 737 805 837T602 938ZM393 1297Q345 1297 314 1327T283 1403Q283 1450 314 1480T393 1511Q438 1511 469 1481T501 1403Q501 1357 470 1327T393 1297ZM805 1297Q759 1297 728 1327T697 1403Q697 1450 728
1480T805 1511Q852 1511 883 1481T915 1403Q915 1357 884 1327T805 1297Z" />
<glyph unicode="&#xf7;" glyph-name="divide" horiz-adv-x="1200" d="M969 695V552H231V695H969ZM600 365Q656 365 695 327T735 233Q735 176 696 137T600 97Q544 97 505 136T465 233Q465 288 504 326T600 365ZM600 1149Q656 1149 695 1111T735 1017Q735 960 696
922T600 884Q544 884 505 922T465 1017Q465 1072 504 1110T600 1149Z" />
<glyph unicode="&#xf8;" glyph-name="oslash" horiz-adv-x="1200" d="M602 1075Q746 1075 846 1008T999 817T1053 527Q1053 366 1001 242T849 48T600 -23Q457 -23 356 45T201 236T147 525Q147 688 199 812T352 1005T602 1075ZM776 1308L917 1267L828 1000L783
927L531 111L504 1L426 -261L286 -219L378 61L427 155L680 971L696 1055L776 1308ZM602 937Q467 937 398 837T328 525Q328 377 358 287T450 156T600 116Q736 116 804 216T872 527Q872 677 842 767T751 897T602 937Z" />
<glyph unicode="&#xf9;" glyph-name="ugrave" horiz-adv-x="1200" d="M369 1053V307Q369 203 412 157T546 111Q633 111 710 160T831 278V1053H999V0H856L842 142Q780 62 689 20T505 -23Q352 -23 277 58T201 287V1053H369ZM773 1244L369 1430L459 1573L828 1337L773 1244Z" />
<glyph unicode="&#xfa;" glyph-name="uacute" horiz-adv-x="1200" d="M369 1053V307Q369 203 412 157T546 111Q633 111 710 160T831 278V1053H999V0H856L842 142Q780 62 689 20T505 -23Q352 -23 277 58T201 287V1053H369ZM767 1594L845 1450L427 1280L375 1370L767 1594Z" />
<glyph unicode="&#xfb;" glyph-name="ucircumflex" horiz-adv-x="1200" d="M369 1053V307Q369 203 412 157T546 111Q633 111 710 160T831 278V1053H999V0H856L842 142Q780 62 689 20T505 -23Q352 -23 277 58T201 287V1053H369ZM354 1258L274 1341L545 1579H658L927
1341L851 1258L602 1439L354 1258Z" />
<glyph unicode="&#xfc;" glyph-name="udieresis" horiz-adv-x="1200" d="M369 1053V307Q369 203 412 157T546 111Q633 111 710 160T831 278V1053H999V0H856L842 142Q780 62 689 20T505 -23Q352 -23 277 58T201 287V1053H369ZM393 1297Q345 1297 314 1327T283 1403Q283
1450 314 1480T393 1511Q438 1511 469 1481T501 1403Q501 1357 470 1327T393 1297ZM805 1297Q759 1297 728 1327T697 1403Q697 1450 728 1480T805 1511Q852 1511 883 1481T915 1403Q915 1357 884 1327T805 1297Z" />
<glyph unicode="&#xfd;" glyph-name="yacute" horiz-adv-x="1200" d="M1077 1053L707 -7Q670 -114 614 -203T467 -350T237 -423L211 -289Q320 -271 383 -234T482 -139T547 0H491L123 1053H303L605 128L903 1053H1077ZM767 1594L845 1450L427 1280L375 1370L767 1594Z" />
<glyph unicode="&#xfe;" glyph-name="thorn" horiz-adv-x="1200" d="M369 1498V923Q427 997 504 1036T672 1075Q812 1075 895 1007T1016 816T1053 527Q1053 368 1009 244T874 48T647 -23Q474 -23 369 99V-403L201 -424V1477L369 1498ZM632 940Q545 940 479 888T369
771V249Q410 188 472 153T610 117Q741 117 807 217T873 528Q873 666 847 757T768 894T632 940Z" />
<glyph unicode="&#xff;" glyph-name="ydieresis" horiz-adv-x="1200" d="M1077 1053L707 -7Q670 -114 614 -203T467 -350T237 -423L211 -289Q320 -271 383 -234T482 -139T547 0H491L123 1053H303L605 128L903 1053H1077ZM393 1297Q345 1297 314 1327T283 1403Q283
1450 314 1480T393 1511Q438 1511 469 1481T501 1403Q501 1357 470 1327T393 1297ZM805 1297Q759 1297 728 1327T697 1403Q697 1450 728 1480T805 1511Q852 1511 883 1481T915 1403Q915 1357 884 1327T805 1297Z" />
<glyph unicode="&#x2013;" glyph-name="endash" horiz-adv-x="1200" d="M65 553V699H1135V553H65Z" />
<glyph unicode="&#x2014;" glyph-name="emdash" horiz-adv-x="1200" d="M0 553V699H1200V553H0Z" />
<glyph unicode="&#x2018;" glyph-name="quoteleft" horiz-adv-x="1200" d="M737 1101Q737 1039 693 997T585 955Q522 955 479 997T435 1101Q435 1126 441 1155T470 1233L635 1578H765L683 1211Q708 1194 722 1165T737 1101Z" />
<glyph unicode="&#x2019;" glyph-name="quoteright" horiz-adv-x="1200" d="M461 1432Q461 1493 507 1535T613 1578Q676 1578 720 1536T765 1432Q765 1403 758 1376T728 1300L563 955H433L515 1322Q490 1339 476 1368T461 1432Z" />
<glyph unicode="&#x201a;" glyph-name="quotesinglbase" horiz-adv-x="1200" d="M461 113Q461 175 506 217T613 259Q675 259 720 217T765 113Q765 85 758 57T728 -19L563 -364H433L514 3Q490 21 476 50T461 113Z" />
<glyph unicode="&#x201c;" glyph-name="quotedblleft" horiz-adv-x="1200" d="M521 1101Q521 1039 477 997T369 955Q305 955 262 997T219 1101Q219 1126 225 1155T254 1233L416 1578H549L467 1211Q492 1194 506 1165T521 1101ZM953 1101Q953 1039 908 997T801
955Q739 955 695 997T651 1101Q651 1126 657 1155T686 1233L851 1578H981L900 1211Q924 1194 938 1165T953 1101Z" />
<glyph unicode="&#x201d;" glyph-name="quotedblright" horiz-adv-x="1200" d="M245 1429Q245 1491 290 1533T397 1576Q459 1576 504 1534T549 1429Q549 1402 541 1375T509 1298L347 953H217L296 1320Q273 1338 259 1367T245 1429ZM677 1429Q677 1491 722 1533T829
1576Q892 1576 936 1534T981 1429Q981 1402 974 1375T944 1298L780 953H649L730 1320Q706 1338 692 1367T677 1429Z" />
<glyph unicode="&#x201e;" glyph-name="quotedblbase" horiz-adv-x="1200" d="M247 113Q247 175 292 217T399 259Q461 259 506 217T551 113Q551 85 544 57T514 -19L349 -364H219L300 3Q276 21 262 50T247 113ZM677 113Q677 175 722 217T829 259Q892 259 935 217T979
113Q979 85 972 56T944 -19L780 -364H649L730 3Q706 21 692 50T677 113Z" />
<glyph unicode="&#x2022;" glyph-name="bullet" horiz-adv-x="1200" d="M600 441Q531 441 476 472T389 559T357 684Q357 754 389 808T476 894T600 925Q670 925 725 894T811 807T843 682Q843 613 812 558T725 472T600 441Z" />
<glyph unicode="&#x2039;" glyph-name="guilsinglleft" horiz-adv-x="1200" d="M823 173L723 110L377 525V647L723 1065L823 1002L556 587L823 173Z" />
<glyph unicode="&#x203a;" glyph-name="guilsinglright" horiz-adv-x="1200" d="M644 587L377 1002L477 1065L823 647V525L477 110L377 173L644 587Z" />
</font>
</defs>
</svg>
